Waysted - The Good The Bad The Waysted (1985) (PBTHAL LP 24-96) [FLAC] vtwin88cube


    Seeders : 0      Leechers : 0

Downloads : 0
Language : English




Description

Waysted
The Good The Bad The Waysted (1985)
FLAC LOSSLESS 24bit-96kHz
UK PBTHAL Vinyl Rip


Not my rip. Any questions about the
eqipment used can be found in the
lineage text.


allmusic.com...

Waysted was a short-lived and rather obscure British heavy metal outfit from the mid-'80s. Led by former UFO bassist Pete Way (hence the spelling of the group's name), the band's original lineup consisted of another UFO alumni, guitarist/keyboardist Paul Raymond, in addition to guitarist Ronnie Kayfield, drummer Frank Noon, and a chap called Fin on vocals. The group's members would come and go often during their brief career (with Way being the only constant member), as Waysted issued a total of four albums -- 1983's Vices, 1984's self-titled release, 1985's The Good, the Bad, the Waysted, and 1986's Save Your Prayer -- in addition to opening tours for such notable '80s metal arena headliners as Dio and Iron Maiden. The group broke up shortly after their final album, as Way eventually resurfaced with a reunited UFO in the mid-'90s.

foobar2000 1.4.3 / Dynamic Range Meter 1.1.1
log date: 2021-05-17 23:07:26

--------------------------------------------------------------------------------
Analyzed: Waysted / The Good The Bad The Waysted
--------------------------------------------------------------------------------

DR Peak RMS Duration Track
--------------------------------------------------------------------------------
DR11 -1.11 dB -14.37 dB 5:23 01-Hang 'Em High
DR11 -1.00 dB -14.88 dB 3:34 02-Hi Ho My Baby
DR12 -1.51 dB -16.53 dB 4:34 03-Heaven Tonight
DR12 -1.06 dB -15.49 dB 5:23 04-Manuel
DR12 -1.06 dB -14.40 dB 4:43 05-Dead On Your Legs
DR11 -1.90 dB -15.96 dB 3:40 06-Rolling Out The Dice
DR12 -1.21 dB -14.89 dB 4:40 07-Land That's Lost The Love
DR12 -1.00 dB -15.98 dB 5:27 08-Crazy 'Bout The Stuff
DR11 -2.60 dB -16.14 dB 3:16 09-Around And Around

Number of tracks: 9
Official DR value: DR11

Samplerate: 96000 Hz
Channels: 2
Bits per sample: 24
Bitrate: 3270 kbps
Codec: FLAC




Support the artists...
buy it if you like it!

Sharing since 2010
Thanks for Seeding!
Cheers ;)
88


Trackers List

Tracker Name
udp://tracker.openbittorrent.com:80/announce
udp://exodus.desync.com:6969/announce
udp://denis.stalker.upeer.me:6969/announce
udp://tracker.torrent.eu.org:451/announce
udp://tracker.coppersurfer.tk:6969/announce
udp://tracker.internetwarriors.net:1337/announce
udp://explodie.org:6969/announce
udp://tracker.leechers-paradise.org:6969/announce
http://tracker.opentrackr.org:1337/announce

Torrent File Content

Waysted - The Good The Bad The Waysted (1985) (UK PBTHAL LP 24-96) [FLAC] vtwin88cube
  • 00.-Waysted - The Good The Bad The Waysted.m3u (0.2 KB)
  • 01.-Hang 'Em High.flac (124.6 MB)
  • 02.-Hi Ho My Baby.flac (84.2 MB)
  • 03.-Heaven Tonight.flac (103.0 MB)
  • 04.-Manuel.flac (128.3 MB)
  • 05.-Dead On Your Legs.flac (110.2 MB)
  • 06.-Rolling Out The Dice.flac (83.0 MB)
  • 07.-Land That's Lost The Love.flac (109.0 MB)
  • 08.-Crazy 'Bout The Stuff.flac (127.4 MB)
  • 09.-Around And Around.flac (76.4 MB)
  • DR11.txt (1.3 KB)
  • folder.jpg (25.6 KB)
  • lineage.txt (0.5 KB)


Latest Searches