Untold.Breaking.Point.2021.1080P.Web-Dl.HEVC [Tornment666]


    Seeders : 9      Leechers : 3

Movie : Untold: Breaking Point
Downloads : 51
Language : English
Genres : ,
Release date : 2021
Summary : Under pressure to continue a winning tradition in American tennis, Mardy Fish faced mental health challenges that changed his life on and off the court.




Description

https://www.imdb.com/title/tt15101938/

Code:



General

Format : MPEG-4
Format profile : Base Media / Version 2
Codec ID : mp42 (isom/iso2/mp41)
File size : 1.01 GiB
Duration : 1 h 19 min
Overall bit rate : 1 809 kb/s
Encoded date : UTC 2021-09-08 04:00:32
Tagged date : UTC 2021-09-08 04:00:32

Video

ID : 1
Format : HEVC
Format/Info : High Efficiency Video Coding
Format profile : [email protected]@Main
Codec ID : hvc1
Codec ID/Info : High Efficiency Video Coding
Duration : 1 h 19 min
Bit rate : 1 646 kb/s
Width : 1 920 pixels
Height : 800 pixels
Display aspect ratio : 2.40:1
Frame rate mode : Variable
Frame rate : 23.976 (23976/1000) FPS
Minimum frame rate : 19.173 FPS
Maximum frame rate : 23.981 FPS
Original frame rate : 23.976 (24000/1001) FPS
Color space : YUV
Chroma subsampling : 4:2:0
Bit depth : 8 bits
Bits/(Pixel*Frame) : 0.045
Stream size : 940 MiB (91%)
Writing library : x265 3.2.1+1-b5c86a64bbbe:[Windows][GCC 9.2.0][64 bit] 8bit+10bit+12bit
Encoded date : UTC 2021-09-08 04:00:32
Tagged date : UTC 2021-09-08 04:00:32
Color range : Limited
Color primaries : BT.709
Transfer characteristics : BT.709
Matrix coefficients : BT.709
Codec configuration box : hvcC

Audio

ID : 2
Format : AAC LC
Format/Info : Advanced Audio Codec Low Complexity
Codec ID : mp4a-40-2
Duration : 1 h 19 min
Bit rate mode : Constant
Bit rate : 157 kb/s
Channel(s) : 2 channels
Channel layout : L R
Sampling rate : 48.0 kHz
Frame rate : 46.875 FPS (1024 SPF)
Compression mode : Lossy
Stream size : 89.8 MiB (9%)
Title : Stereo
Language : English
Default : Yes
Alternate group : 1
Encoded date : UTC 2021-09-08 04:00:32
Tagged date : UTC 2021-09-08 04:00:32








Trackers List

Tracker Name
udp://tracker.opentrackr.org:1337
udp://tracker.leechers-paradise.org:6969/announce
udp://9.rarbg.to:2920/announce

Torrent File Content

Untold.Breaking.Point.2021.1080P.Web-Dl.HEVC [Tornment666]
  • Tornment666.pgp (3.1 KB)
  • Untold.Breaking.Point.2021.1080P.Web-Dl.HEVC [Tornment666].mp4 (1.0 GB)

Related torrents

Torrent Name Added Size Seed Leech
15 days ago 799.1 MB 28 5


Latest Searches