Tuck.Jagadish.2021.1080p.AMZN.Telugu.10bit.DDP.5.1.x265.[HashMiner]


    Seeders : 76      Leechers : 57

Movie : Tuck Jagadish
Downloads : 1883
Language : Telugu
tag : TuckJagadish,2021,1080p,Telugu,10bit,x265,hashminer,
Genres : Drama,Action,
Release date : 2021
Summary : Aadisesh Naidu, is a well revered man living with his family in a village known for greedy property fights among the families. His elder son Bosu Babu and younger son Jagadish are loving brothers. After Aadisesh’s unexpected demise, Bosu Babu turns against Jagadish and wants to grab his property. How Jagadish reunites his family and carries on his father’s legacy forms the plot.




Description




Encoded by HashMiner!


1337x  |  TorrentGalaxy




⭐ UPCOMING ENCODES ⭐




Lucifer Season 6
10 Sept 2021


══════════════════════════════════════════════════════════════════════════


Audio Language:  Telugu. 

Subtitles Included: English.



 ══════════════════════════════════════════════════════════════════════════









Genre:  Action, Drama.
Plot:  Aadisesh Naidu, is a well revered man living with his family in a village known for greedy property fights among the families. His elder son Bosu Babu and younger son Jagadish are loving brothers. After Aadisesh's unexpected demise, Bosu Babu turns against Jagadish and wants to grab his property.


 ══════════════════════════════════════════════════════════════════════════















══════════════════════════════════════════════════════════════════════════





Quote:

Code:

General
Unique ID                      : 45605257896988919380547263386984186495 (0x224F40D0707618D6C4A7F806E895027F)
Complete name                  : Tuck.Jagadish.2021.1080p.AMZN.Telugu.10bit.DDP.5.1.x265.[HashMiner].mkv
Format                         : Matroska
Format version                 : Version 4 / Version 2
File size                      : 2.26 GiB
Duration                       : 2 h 25 min
Overall bit rate               : 2 218 kb/s
Writing application            : mkvmerge v50.0.0 ('Awakenings') 64-bit
Writing library                : libebml v1.4.0 + libmatroska v1.6.2 / Lavf58.76.100
Video
ID                             : 1
Format                         : HEVC
Format/Info                    : High Efficiency Video Coding
Format profile                 : Main [email protected]@Main
Codec ID                       : V_MPEGH/ISO/HEVC
Duration                       : 2 h 25 min
Bit rate                       : 1 576 kb/s
Width                          : 1 918 pixels
Height                         : 816 pixels
Display aspect ratio           : 2.35:1
Frame rate mode                : Constant
Frame rate                     : 23.976 (24000/1001) FPS
Color space                    : YUV
Chroma subsampling             : 4:2:0
Bit depth                      : 10 bits
Bits/(Pixel*Frame)             : 0.042
Stream size                    : 1.60 GiB (71%)
Writing library                : x265 3.5+1-f0c1022b6:[Windows][clang 12.0.0][64 bit] 10bit
Encoding settings              : cpuid=1111039 / frame-threads=3 / numa-pools=12 / wpp / no-pmode / no-pme / no-psnr / no-ssim / log-level=2 / input-csp=1 / input-res=1918x816 / interlace=0 / total-frames=0 / level-idc=0 / high-tier=1 / uhd-bd=0 / ref=1 / no-allow-non-conformance / no-repeat-headers / annexb / no-aud / no-hrd / info / hash=0 / no-temporal-layers / open-gop / min-keyint=24 / keyint=240 / gop-lookahead=0 / bframes=3 / b-adapt=0 / b-pyramid / bframe-bias=0 / rc-lookahead=5 / lookahead-slices=5 / scenecut=0 / hist-scenecut=0 / radl=0 / no-splice / no-intra-refresh / ctu=32 / min-cu-size=16 / no-rect / no-amp / max-tu-size=32 / tu-inter-depth=1 / tu-intra-depth=1 / limit-tu=0 / rdoq-level=0 / dynamic-rd=0.00 / no-ssim-rd / no-signhide / no-tskip / nr-intra=0 / nr-inter=0 / no-constrained-intra / strong-intra-smoothing / max-merge=2 / limit-refs=0 / no-limit-modes / me=0 / subme=0 / merange=57 / temporal-mvp / no-frame-dup / no-hme / no-weightp / no-weightb / no-analyze-src-pics / deblock=0:0 / no-sao / no-sao-non-deblock / rd=2 / selective-sao=0 / early-skip / rskip / fast-intra / no-tskip-fast / no-cu-lossless / no-b-intra / no-splitrd-skip / rdpenalty=0 / psy-rd=2.00 / psy-rdoq=0.00 / no-rd-refine / no-lossless / cbqpoffs=0 / crqpoffs=0 / rc=crf / crf=21.0 / qcomp=0.60 / qpstep=4 / stats-write=0 / stats-read=0 / ipratio=1.40 / pbratio=1.30 / aq-mode=1 / aq-strength=0.00 / cutree / zone-count=0 / no-strict-cbr / qg-size=32 / no-rc-grain / qpmax=69 / qpmin=0 / no-const-vbv / sar=1 / overscan=0 / videoformat=5 / range=0 / colorprim=1 / transfer=1 / colormatrix=1 / chromaloc=0 / display-window=0 / cll=0,0 / min-luma=0 / max-luma=1023 / log2-max-poc-lsb=8 / vui-timing-info / vui-hrd-info / slices=1 / no-opt-qp-pps / no-opt-ref-list-length-pps / no-multi-pass-opt-rps / scenecut-bias=0.05 / hist-threshold=0.03 / no-opt-cu-delta-qp / no-aq-motion / no-hdr10 / no-hdr10-opt / no-dhdr10-opt / no-idr-recovery-sei / analysis-reuse-level=0 / analysis-save-reuse-level=0 / analysis-load-reuse-level=0 / scale-factor=0 / refine-intra=0 / refine-inter=0 / refine-mv=1 / refine-ctu-distortion=0 / no-limit-sao / ctu-info=0 / no-lowpass-dct / refine-analysis-type=0 / copy-pic=1 / max-ausize-factor=1.0 / no-dynamic-refine / no-single-sei / no-hevc-aq / no-svt / no-field / qp-adaptation-range=1.00 / scenecut-aware-qp=0conformance-window-offsets / right=0 / bottom=0 / decoder-max-rate=0 / no-vbv-live-multi-pass
Default                        : Yes
Forced                         : No
Color range                    : Limited
Color primaries                : BT.709
Transfer characteristics       : BT.709
Matrix coefficients            : BT.709
Audio
ID                             : 2
Format                         : E-AC-3
Format/Info                    : Enhanced Audio Coding 3
Format settings, Endianness    : Big
Codec ID                       : A_EAC3
Duration                       : 2 h 25 min
Bit rate mode                  : Constant
Bit rate                       : 640 kb/s
Channel(s)                     : 6 channels
Channel positions              : Front: L C R, Side: L R, LFE
Sampling rate                  : 48.0 kHz
Frame rate                     : 187.500 FPS (256 SPF)
Compression mode               : Lossy
Delay relative to video        : -5 ms
Stream size                    : 667 MiB (29%)
Title                          : Surround
Language                       : Telugu
Service kind                   : Complete Main
Default                        : Yes
Forced                         : No
Text
ID                             : 3
Format                         : UTF-8
Codec ID                       : S_TEXT/UTF8
Codec ID/Info                  : UTF-8 Plain Text
Duration                       : 2 h 21 min
Bit rate                       : 69 b/s
Count of elements              : 2168
Stream size                    : 71.6 KiB (0%)
Language                       : English
Default                        : Yes
Forced                         : No


 ══════════════════════════════════════════════════════════════════════════






If you like my Encodes, Please consider donating



Bitcoin: 13Gm1RLtiLspyL7NrXZmeVKCXHTC5Eih1h


Ethereum: 0x1bA096179a4E3f9d6Ce3F89Ba7b9Ff94c325AdE8


Monero:
469v2aUdtVuH8VAU9fuPkNHA2gdkkST9p8QEZ1NyBCX2ekH47R6cpb77i2j7zG989v34GiZgW8eqcDnTTAzFmexE2cPRCzA



Trackers List

Tracker Name
udp://open.stealth.si:80/announce
udp://tracker.tiny-vps.com:6969/announce
udp://fasttracker.foreverpirates.co:6969/announce
udp://tracker.opentrackr.org:1337/announce
udp://tracker.uw0.xyz:6969/announce
udp://opentracker.i2p.rocks:6969/announce
udp://tracker.torrent.eu.org:451/announce
udp://opentor.org:2710/announce
udp://tracker.dler.org:6969/announce

Torrent File Content

Tuck.Jagadish.2021.1080p.AMZN.Telugu.10bit.DDP.5.1.x265.[HashMiner]
  • Tuck.Jagadish.2021.1080p.AMZN.Telugu.10bit.DDP.5.1.x265.[HashMiner].mkv (2.3 GB)
  • Uploaded by HashMiner! [ReadMe].txt (1.5 KB)


Latest Searches