The Marksman (2021) 1080p 5.1 -2.0 x264 Phun Psyz


    Seeders : 19      Leechers : 3

Movie : The Marksman
Downloads : 143
Language : English
tag : The Marksman,2021,1080p,x264,Phun Psyz,
Genres : Action,Thriller,Crime,
Release date : 2021
Summary : Jim Hanson’s quiet life is suddenly disturbed by two people crossing the US/Mexico border – a woman and her young son – desperate to flee a Mexican cartel. After a shootout leaves the mother dead, Jim becomes the boy’s reluctant defender. He embraces his role as Miguel’s protector and will stop at nothing to get him to safety, as they go on the run from the relentless assassins.




Description

www.imdb.com/title/tt6902332/

A rancher on the Arizona border becomes the unlikely defender of a young Mexican boy desperately fleeing the cartel assassins who've pursued him into the U.S.

Source: NOGRP (Amzn)



Format                      : MPEG-4
Format profile              : Base Media / Version 2
Codec ID                    : mp42 (isom/iso2/avc1/mp41)
File size                   : 1.78 GiB
Duration                    : 1 h 47 min
Overall bit rate mode       : Variable
Overall bit rate            : 2 376 kb/s
Writing application         : HandBrake 1.3.3 2020061300

Video
ID                          : 1
Format                      : AVC
Format/Info                 : Advanced Video Codec
Format profile              : [email protected]
Format settings             : CABAC / 1 Ref Frames
Format settings, CABAC      : Yes
Format settings, Reference  : 1 frame
Codec ID                    : avc1
Codec ID/Info               : Advanced Video Coding
Duration                    : 1 h 47 min
Bit rate                    : 1 887 kb/s
Width                       : 1 920 pixels
Height                      : 800 pixels
Display aspect ratio        : 2.40:1
Frame rate mode             : Variable
Frame rate                  : 23.976 (24000/1001) FPS
Minimum frame rate          : 23.974 FPS
Maximum frame rate          : 23.981 FPS
Color space                 : YUV
Chroma subsampling          : 4:2:0
Bit depth                   : 8 bits
Scan type                   : Progressive
Bits/(Pixel*Frame)          : 0.051
Stream size                 : 1.42 GiB (79%)
Writing library             : x264 core 157 r2935 545de2f
Color primaries             : BT.709
Transfer characteristics    : BT.709
Matrix coefficients         : BT.709
Codec configuration box     : avcC

Audio #1
ID                          : 2
Format                      : AC-3
Format/Info                 : Audio Coding 3
Commercial name             : Dolby Digital
Codec ID                    : ac-3
Duration                    : 1 h 47 min
Bit rate mode               : Constant
Bit rate                    : 320 kb/s
Channel(s)                  : 6 channels
Channel layout              : L R C LFE Ls Rs
Sampling rate               : 48.0 kHz
Frame rate                  : 31.250 FPS (1536 SPF)
Compression mode            : Lossy
Stream size                 : 246 MiB (13%)
Title                       : Surround
Language                    : English
Service kind                : Complete Main
Default                     : Yes

Audio #2
ID                          : 3
Format                      : AAC LC
Format/Info                 : Advanced Audio Codec Low Complexity
Codec ID                    : mp4a-40-2
Duration                    : 1 h 47 min
Bit rate mode               : Constant
Bit rate                    : 161 kb/s
Channel(s)                  : 2 channels
Channel layout              : L R
Sampling rate               : 48.0 kHz
Frame rate                  : 46.875 FPS (1024 SPF)
Compression mode            : Lossy
Stream size                 : 123 MiB (7%)
Title                       : Stereo
Language                    : English

Text
Language                    : English
Default                     : Yes
Forced                      : No
Language                    : English
Language                    : English
Default                     : No
Forced                      : No


Trackers List

Tracker Name
udp://tracker.tiny-vps.com:6969/announce
udp://fasttracker.foreverpirates.co:6969/announce
udp://tracker.opentrackr.org:1337/announce
udp://explodie.org:6969/announce
udp://open.stealth.si:80/announce
http://tracker.ipv6tracker.ru:80/announce
udp://tracker.torrent.eu.org:451/announce
http://sugoi.pomf.se/announce
udp://tracker.dler.org:6969/announce
udp://9.rarbg.me:2730/announce
udp://fe.dealclub.de:6969/announce
udp://tracker.altrosky.nl:6969/announce
udp://code2chicken.nl:6969/announce
udp://tracker.zerobytes.xyz:1337/announce
http://tracker.pomf.se/announce

Torrent File Content

  • The Marksman (2021) 1080p 5.1 -2.0 x264 Phun Psyz.mp4 (1.8 GB)

Related torrents

Torrent Name Added Size Seed Leech
22 days ago 2 GB 3306 624
22 days ago 3.7 GB 2687 263
24 days ago 797.3 MB 1960 234
24 days ago 1.4 GB 687 84
16 days ago 1.6 GB 346 58


Latest Searches