The.Green.Knight.2021.1080p.AMZN.WEBRip.DDP5.1.Atmos.x264-NOGRP


    Seeders : 4280      Leechers : 967

Movie : The Green Knight
Downloads : 7051
Language : English
tag : MOVIE,RARBG,
Genres : Drama,Fantasy,Adventure,
Release date : 2021
Summary : An epic fantasy adventure based on the timeless Arthurian legend, The Green Knight tells the story of Sir Gawain, King Arthur's reckless and headstrong nephew, who embarks on a daring quest to confront the eponymous Green Knight, a gigantic emerald-skinned stranger and tester of men.




Description





Infolink -> https://www.imdb.com/title/tt9243804/

Mediainfo

Quote:

Video
ID : 1
Format : AVC
Format/Info : Advanced Video Codec
Format profile : [email protected]
Format settings : CABAC / 4 Ref Frames
Format settings, CABAC : Yes
Format settings, Reference frames : 4 frames
Codec ID : V_MPEG4/ISO/AVC
Duration : 2 h 9 min
Bit rate mode : Constant
Bit rate : 5 803 kb/s
Nominal bit rate : 10 000 kb/s
Width : 1 920 pixels
Height : 1 040 pixels
Display aspect ratio : 1.85:1
Frame rate mode : Constant
Frame rate : 23.976 (24000/1001) FPS
Color space : YUV
Chroma subsampling : 4:2:0
Bit depth : 8 bits
Scan type : Progressive
Bits/(Pixel*Frame) : 0.121
Stream size : 5.26 GiB (88%)
Language : English
Default : Yes
Forced : No
Color range : Limited
Color primaries : BT.709
Transfer characteristics : BT.709
Matrix coefficients : BT.709

Audio
ID : 2
Format : E-AC-3 JOC
Format/Info : Enhanced AC-3 with Joint Object Coding
Commercial name : Dolby Digital Plus with Dolby Atmos
Codec ID : A_EAC3
Duration : 2 h 9 min
Bit rate mode : Constant
Bit rate : 768 kb/s
Channel(s) : 6 channels
Channel layout : L R C LFE Ls Rs
Sampling rate : 48.0 kHz
Frame rate : 31.250 FPS (1536 SPF)
Compression mode : Lossy
Delay relative to video : 12 ms
Stream size : 713 MiB (12%)
Title : English
Language : English
Service kind : Complete Main
Default : No
Forced : No
Complexity index : 16
Number of dynamic objects : 15
Bed channel count : 1 channel
Bed channel configuration : LFE

Text #1
ID : 3
Format : UTF-8
Codec ID : S_TEXT/UTF8
Codec ID/Info : UTF-8 Plain Text
Duration : 2 h 5 min
Bit rate : 21 b/s
Count of elements : 829
Stream size : 19.9 KiB (0%)
Language : English
Default : Yes
Forced : No

Text #2
ID : 4
Format : UTF-8
Codec ID : S_TEXT/UTF8
Codec ID/Info : UTF-8 Plain Text
Duration : 2 h 8 min
Bit rate : 31 b/s
Count of elements : 1238
Stream size : 29.6 KiB (0%)
Title : SDH
Language : English
Default : No
Forced : No


Trackers List

Tracker Name
http://tracker.trackerfix.com:80/announce
udp://9.rarbg.me:2960/announce
udp://9.rarbg.to:2810/announce
udp://tracker.fatkhoala.org:13710/announce
udp://tracker.tallpenguin.org:15740/announce

Torrent File Content

The.Green.Knight.2021.1080p.AMZN.WEBRip.DDP5.1.Atmos.x264-NOGRP
  • RARBG.txt (0.0 KB)
  • The.Green.Knight.2021.1080p.AMZN.WEB-DL.DDP5.1.Atmos.x264-NOGRP.mkv (6.0 GB)

Related torrents

Torrent Name Added Size Seed Leech
1 month ago 2.5 GB 2533 791
1 month ago 796.9 MB 2089 375
1 month ago 3.1 GB 932 150
1 month ago 3.1 GB 736 79
1 month ago 1.4 GB 426 95


Latest Searches