The Brokenwood Mysteries S07 1080P RB58


    Seeders : 12      Leechers : 5

Downloads : 59
Language : English




Description

The Brokenwood Mysteries S07 1080P x264 mp4

https://www.imdb.com/title/tt3640276/

Thank you for your kind comments and feedback on my other torrents, your feedback is welcome.

About the Series:
In Brokenwood the scenery is idyllic and the people friendly, if a bit quirky.
But beneath the pleasant veneer are dark secrets fuelled by greed, lust and envy,
which all too often lead to murder.

I hope you enjoy.





Technical:

General
Complete name : I:\The Brokenwood Mysteries S07\The Brokenwood Mysteries S07E01 - The Garotte and the Vinklebraun 1080P x264 RB58.mp4
Format : MPEG-4
Format profile : Base Media
Codec ID : isom
File size : 2.01 GiB
Duration : 1h 31mn
Overall bit rate mode : Variable
Overall bit rate : 3 133 Kbps
Writing application : VideoReDo (Lavf58.29.100)

Video
ID : 1
Format : AVC
Format/Info : Advanced Video Codec
Format profile : [email protected]
Format settings, CABAC : Yes
Format settings, ReFrames : 4 frames
Codec ID : avc1
Codec ID/Info : Advanced Video Coding
Duration : 1h 31mn
Bit rate : 3 000 Kbps
Width : 1 920 pixels
Height : 1 080 pixels
Display aspect ratio : 16:9
Frame rate mode : Constant
Frame rate : 25.000 fps
Color space : YUV
Chroma subsampling : 4:2:0
Bit depth : 8 bits
Scan type : Progressive
Bits/(Pixel*Frame) : 0.058
Stream size : 1.92 GiB (96%)
Writing library : x264 core 160 r3000
Encoding settings : cabac=1 / ref=1 / deblock=1:0:0

Audio
ID : 2
Format : AAC
Format/Info : Advanced Audio Codec
Format profile : LC
Codec ID : 40
Duration : 1h 31mn
Duration_LastFrame : -21ms
Bit rate mode : Variable
Bit rate : 125 Kbps
Maximum bit rate : 128 Kbps
Channel(s) : 2 channels
Channel positions : Front: L R
Sampling rate : 48.0 KHz
Compression mode : Lossy
Stream size : 82.4 MiB (4%)
Language : English


Trackers List

Tracker Name
udp://tracker.uw0.xyz:6969/announce
udp://fasttracker.foreverpirates.co:6969/announce
udp://tracker.shkinev.me:6969/announce
udp://tracker.moeking.me:6969/announce
udp://open.stealth.si:80/announce
udp://tracker.tiny-vps.com:6969/announce
udp://tracker.torrent.eu.org:451/announce
udp://tracker.opentrackr.org:1337/announce
udp://tracker.cyberia.is:6969/announce
udp://tracker.zerobytes.xyz:1337/announce
udp://fe.dealclub.de:6969/announce

Torrent File Content

The Brokenwood Mysteries S07
  • The Brokenwood Mysteries S07E03 - Dog Day Morning 1080P x264 RB58.mp4 (2.0 GB)
  • The Brokenwood Mysteries S07E01 - The Garotte and the Vinklebraun 1080P x264 RB58.mp4 (2.0 GB)
  • The Brokenwood Mysteries S07E01 - The Garotte and the Vinklebraun 1080P x264 RB58.srt (130.8 KB)
  • The Brokenwood Mysteries S07E02 - The Witches of Brokenwood 1080P x264 RB58.mp4 (2.0 GB)
  • The Brokenwood Mysteries S07E02 - The Witches of Brokenwood 1080P x264 RB58.srt (138.7 KB)
  • [TGx]Downloaded from torrentgalaxy.to .txt (0.6 KB)
  • The Brokenwood Mysteries S07E03 - Dog Day Morning 1080P x264 RB58.srt (135.3 KB)
  • The Brokenwood Mysteries S07E04 - Something Nasty at the Market 1080P x264 RB58.mp4 (2.0 GB)
  • The Brokenwood Mysteries S07E04 - Something Nasty at the Market 1080P x264 RB58.srt (139.3 KB)
  • The Brokenwood Mysteries S07E05 - Exposed to the Light 1080P x264 RB58.mp4 (2.0 GB)
  • The Brokenwood Mysteries S07E05 - Exposed to the Light 1080P x264 RB58.srt (129.7 KB)
  • The Brokenwood Mysteries S07E06 - Heres to you Mrs Robinson 1080P x264 RB58.mp4 (2.0 GB)
  • The Brokenwood Mysteries S07E06 - Heres to you Mrs Robinson 1080P x264 RB58.srt (128.8 KB)
  • Where I Upload.txt (0.3 KB)


Latest Searches

match  |  5.0  |  rituals  |  scar  |  true  |  last day  |  depeche mode discography flac  |  collection  |  the norm tv  |  Quick heal  |  true  |  colleen  |  multilanguage  |  Marilyn Kaye Dreamcrusher  |  anal teen punish  |