The Broken Hearts Gallery (2020) 1080p 10bit Bluray x265 HEVC [Org DD 5.1 Hindi + DD 5.1 English] MSubs ~ TombDoc


    Seeders : 11      Leechers : 7

Movie : The Broken Hearts Gallery
Downloads : 386
Language : Hindi
tag : McuDudeS,10bit Hindi,TombDoc,
Genres : Comedy,Romance,
Release date : 2020
Summary : Lucy is a young gallery assistant who collects mementos from her relationships. She discovers that she must let go of her past to move forward, and comes up with a lovely, artistic way to help herself and others who have suffered heartbreak.




Description



There's an art to letting go...




The Broken Hearts Gallery (2020) 1080p 10bit Bluray x265 HEVC [Org DD 5.1 Hindi + DD 5.1 English] MSubs ~ TombDoc


Code:

Format : Matroska
Format version : Version 4
File size : 3.92 GiB
Duration : 1 h 48 min
Overall bit rate : 5 156 kb/s

Video
ID : 1
Format : HEVC
Format/Info : High Efficiency Video Coding
Format profile : Main [email protected]@Main
Codec ID : V_MPEGH/ISO/HEVC
Duration : 1 h 48 min
Bit rate : 3 997 kb/s
Width : 1 920 pixels
Height : 960 pixels
Display aspect ratio : 2.000
Frame rate mode : Constant
Frame rate : 23.976 (24000/1001) FPS
Color space : YUV
Chroma subsampling : 4:2:0
Bit depth : 10 bits
Bits/(Pixel*Frame) : 0.090
Stream size : 3.04 GiB (78%)
Writing library : x265 3.4+70-90fa80a85:[DJATOM's Mod][Windows][GCC 10.2.1][64 bit] 10bit
Encoding settings : cpuid=1111039 / frame-threads=4 / numa-pools=24 / wpp / no-pmode / no-pme / no-psnr / no-ssim / log-level=2 / input-csp=1 / input-res=1920x960 / interlace=0 / total-frames=156610 / level-idc=0 / high-tier=1 / uhd-bd=0 / ref=5 / no-allow-non-conformance / no-repeat-headers / annexb / no-aud / no-hrd / info / hash=0 / no-temporal-layers / open-gop / min-keyint=23 / keyint=250 / gop-lookahead=0 / bframes=8 / b-adapt=2 / b-pyramid / bframe-bias=0 / rc-lookahead=100 / lookahead-slices=4 / scenecut=40 / hist-scenecut=0 / radl=0 / no-splice / no-intra-refresh / ctu=64 / min-cu-size=8 / rect / amp / max-tu-size=32 / tu-inter-depth=2 / tu-intra-depth=2 / limit-tu=1 / rdoq-level=2 / dynamic-rd=0.00 / ssim-rd / signhide / no-tskip / nr-intra=0 / nr-inter=0 / no-constrained-intra / strong-intra-smoothing / max-merge=5 / limit-refs=3 / limit-modes / me=3 / subme=6 / merange=57 / temporal-mvp / no-frame-dup / no-hme / weightp / no-weightb / no-analyze-src-pics / deblock=0:0 / sao / no-sao-non-deblock / rd=4 / selective-sao=4 / no-early-skip / rskip / no-fast-intra / no-tskip-fast / no-cu-lossless / no-b-intra / no-splitrd-skip / rdpenalty=0 / psy-rd=0.00 / psy-rdoq=2.00 / no-rd-refine / no-lossless / cbqpoffs=0 / crqpoffs=0 / rc=abr / bitrate=4000 / qcomp=0.60 / qpstep=4 / stats-write=0 / stats-read=2 / cplxblur=20.0 / qblur=0.5 / ipratio=1.40 / pbratio=1.30 / aq-mode=4 / aq-strength=1.00 / cutree / zone-count=0 / no-strict-cbr / qg-size=32 / rc-grain / qpmax=69 / qpmin=0 / no-const-vbv / sar=0 / overscan=0 / videoformat=5 / range=0 / colorprim=2 / transfer=2 / colormatrix=2 / chromaloc=0 / display-window=0 / cll=0,0 / min-luma=0 / max-luma=1023 / log2-max-poc-lsb=8 / vui-timing-info / vui-hrd-info / slices=1 / no-opt-qp-pps / no-opt-ref-list-length-pps / no-multi-pass-opt-rps / scenecut-bias=0.05 / hist-threshold=0.01 / no-opt-cu-delta-qp / aq-motion / no-hdr10 / no-hdr10-opt / no-dhdr10-opt / no-idr-recovery-sei / analysis-reuse-level=0 / analysis-save-reuse-level=0 / analysis-load-reuse-level=0 / scale-factor=0 / refine-intra=0 / refine-inter=0 / refine-mv=1 / refine-ctu-distortion=0 / no-limit-sao / ctu-info=0 / no-lowpass-dct / refine-analysis-type=0 / copy-pic=1 / max-ausize-factor=1.0 / no-dynamic-refine / no-single-sei / hevc-aq / no-svt / no-field / qp-adaptation-range=1.00 / no-scenecut-aware-qpconformance-window-offsets / right=0 / bottom=0 / decoder-max-rate=0 / no-vbv-live-multi-pass
Default : Yes
Forced : No

Audio #1
ID : 2
Format : E-AC-3
Format/Info : Enhanced AC-3
Commercial name : Dolby Digital Plus
Codec ID : A_EAC3
Duration : 1 h 48 min
Bit rate mode : Constant
Bit rate : 640 kb/s
Channel(s) : 6 channels
Channel layout : L R C LFE Ls Rs
Sampling rate : 48.0 kHz
Frame rate : 31.250 FPS (1536 SPF)
Compression mode : Lossy
Delay relative to video : 1 s 31 ms
Stream size : 498 MiB (12%)
Title : Org Amz DD+ 5.1 640Kbps ~ TombDoc
Language : Hindi
Service kind : Complete Main
Default : Yes
Forced : Yes

Audio #2
ID : 3
Format : E-AC-3
Format/Info : Enhanced AC-3
Commercial name : Dolby Digital Plus
Codec ID : A_EAC3
Duration : 1 h 48 min
Bit rate mode : Constant
Bit rate : 448 kb/s
Channel(s) : 6 channels
Channel layout : L R C LFE Ls Rs
Sampling rate : 48.0 kHz
Frame rate : 31.250 FPS (1536 SPF)
Compression mode : Lossy
Stream size : 349 MiB (9%)
Title : DD+ 5.1 English
Language : English
Service kind : Complete Main
Default : No
Forced : No

Text #1
ID : 4
Format : PGS
Muxing mode : zlib
Codec ID : S_HDMV/PGS
Codec ID/Info : Picture based subtitle format used on BDs/HD-DVDs
Duration : 1 h 47 min
Bit rate : 39.8 kb/s
Count of elements : 3366
Stream size : 30.7 MiB (1%)
Title : Hindi BD-PGS
Language : Hindi
Default : Yes
Forced : Yes

Text #2
ID : 5
Format : PGS
Muxing mode : zlib
Codec ID : S_HDMV/PGS
Codec ID/Info : Picture based subtitle format used on BDs/HD-DVDs
Duration : 1 h 44 min
Bit rate : 50.1 kb/s
Count of elements : 3284
Stream size : 37.5 MiB (1%)
Title : Eng BD-PGS
Language : English
Default : No
Forced : No

Text #3
ID : 6
Format : PGS
Muxing mode : zlib
Codec ID : S_HDMV/PGS
Codec ID/Info : Picture based subtitle format used on BDs/HD-DVDs
Duration : 1 h 47 min
Bit rate : 58.3 kb/s
Count of elements : 4081
Stream size : 45.0 MiB (1%)
Title : Eng BD-PGS-SDH
Language : English
Default : No
Forced : No

Menu
00:00:00.000 : Chapter 01
00:06:39.816 : Chapter 02
00:12:41.552 : Chapter 03
00:19:11.525 : Chapter 04
00:28:20.699 : Chapter 05
00:39:55.852 : Chapter 06
00:46:55.688 : Chapter 07
00:52:40.991 : Chapter 08
01:04:15.268 : Chapter 09
01:09:45.765 : Chapter 10
01:15:21.934 : Chapter 11
01:19:40.234 : Chapter 12
01:25:23.535 : Chapter 13
01:30:33.428 : Chapter 14
01:34:59.986 : Chapter 15
01:37:15.830 : Chapter 16
01:44:51.160 : Chapter 17



Code:

Source: The Broken Hearts Gallery 2020 1080p Blu-ray AVC DTS-HD MA 5.1-MTeam
EnjOyY the Quality...





Trackers List

Tracker Name
udp://tracker.internetwarriors.net:1337/announce
udp://tracker.opentrackr.org:1337/announce
udp://tracker.openbittorrent.com:6969/announce
udp://exodus.desync.com:6969/announce
udp://retracker.lanta-net.ru:2710/announce
udp://open.stealth.si:80/announce
udp://www.torrent.eu.org:451/announce
udp://tracker.torrent.eu.org:451/announce
udp://tracker.tiny-vps.com:6969/announce
udp://wassermann.online:6969/announce
udp://vibe.community:6969/announce
udp://valakas.rollo.dnsabr.com:2710/announce
udp://us-tracker.publictracker.xyz:6969/announce
udp://udp-tracker.shittyurl.org:6969/announce
udp://u.wwwww.wtf:1/announce
udp://tracker1.bt.moack.co.kr:80/announce
udp://tracker0.ufibox.com:6969/announce
udp://tracker.zerobytes.xyz:1337/announce
udp://tracker.v6speed.org:6969/announce
udp://tracker.uw0.xyz:6969/announce

Torrent File Content

The Broken Hearts Gallery (2020) 1080p 10bit Bluray x265 HEVC [Org DD 5.1 Hindi + DD 5.1 English] MSubs ~ TombDoc
  • T.B.H.G.jpg (292.9 KB)
  • The Broken Hearts Gallery (2020) 1080p 10bit Bluray x265 HEVC [Org DD 5.1 Hindi + DD 5.1 English] MSubs ~ TombDoc.mkv (3.9 GB)

Related torrents

Torrent Name Added Size Seed Leech
6 months ago 797.1 MB 188 61
5 months ago 2.1 GB 66 8
5 months ago 11.8 GB 63 14
5 months ago 2.6 GB 41 9
6 months ago 5.8 GB 37 11


Latest Searches