The Boy and the Beast (2015) (1080p x265 HEVC 10bit BluRay Dual Audio AC3 5.1) [PROF!]


    Seeders : 7      Leechers : 3

Downloads : 84
Language : English




Description

Placebo.







General

Format : Matroska
Format version : Version 4
File size : 5.50 GiB
Duration : 1 h 59 min
Overall bit rate : 6 595 kb/s
Encoded date : UTC 2021-10-09 10:32:23
Writing application : mkvmerge v59.0.0 ('Shining Star') 64-bit
Writing library : libebml v1.4.2 + libmatroska v1.6.4

Video
ID : 1
Format : HEVC
Format/Info : High Efficiency Video Coding
Format profile : Main [email protected]@Main
Codec ID : V_MPEGH/ISO/HEVC
Duration : 1 h 59 min
Bit rate : 5 695 kb/s
Width : 1 920 pixels
Height : 1 080 pixels
Display aspect ratio : 16:9
Frame rate mode : Constant
Frame rate : 23.976 (24000/1001) FPS
Color space : YUV
Chroma subsampling : 4:2:0
Bit depth : 10 bits
Bits/(Pixel*Frame) : 0.115
Stream size : 4.74 GiB (86%)
Writing library : x265 3.5+12+14-106329cbd:[Windows][GCC 10.3.0][64 bit] 10bit
Encoding settings : cpuid=1111039 / frame-threads=4 / numa-pools=24 / wpp / no-pmode / no-pme / no-psnr / no-ssim / log-level=2 / input-csp=1 / input-res=1920x1080 / interlace=0 / total-frames=171365 / level-idc=0 / high-tier=1 / uhd-bd=0 / ref=5 / no-allow-non-conformance / no-repeat-headers / annexb / no-aud / no-eob / no-eos / no-hrd / info / hash=0 / no-temporal-layers / open-gop / min-keyint=23 / keyint=250 / gop-lookahead=0 / bframes=8 / b-adapt=2 / b-pyramid / bframe-bias=0 / rc-lookahead=60 / lookahead-slices=0 / scenecut=40 / no-hist-scenecut / radl=0 / no-splice / no-intra-refresh / ctu=64 / min-cu-size=8 / rect / amp / max-tu-size=32 / tu-inter-depth=4 / tu-intra-depth=4 / limit-tu=0 / rdoq-level=2 / dynamic-rd=0.00 / no-ssim-rd / signhide / tskip / nr-intra=0 / nr-inter=0 / no-constrained-intra / strong-intra-smoothing / max-merge=5 / limit-refs=0 / no-limit-modes / me=3 / subme=5 / merange=92 / temporal-mvp / no-frame-dup / no-hme / weightp / weightb / no-analyze-src-pics / deblock=0:0 / sao / no-sao-non-deblock / rd=6 / selective-sao=4 / no-early-skip / no-rskip / no-fast-intra / no-tskip-fast / no-cu-lossless / b-intra / no-splitrd-skip / rdpenalty=0 / psy-rd=2.00 / psy-rdoq=1.00 / no-rd-refine / no-lossless / cbqpoffs=0 / crqpoffs=0 / rc=crf / crf=18.0 / qcomp=0.60 / qpstep=4 / stats-write=0 / stats-read=0 / ipratio=1.40 / pbratio=1.30 / aq-mode=3 / aq-strength=1.00 / cutree / zone-count=0 / no-strict-cbr / qg-size=32 / no-rc-grain / qpmax=69 / qpmin=0 / no-const-vbv / sar=0 / overscan=0 / videoformat=5 / range=0 / colorprim=2 / transfer=2 / colormatrix=2 / chromaloc=0 / display-window=0 / cll=0,0 / min-luma=0 / max-luma=1023 / log2-max-poc-lsb=8 / vui-timing-info / vui-hrd-info / slices=1 / no-opt-qp-pps / no-opt-ref-list-length-pps / no-multi-pass-opt-rps / scenecut-bias=0.05 / hist-threshold=0.03 / no-opt-cu-delta-qp / no-aq-motion / no-hdr10 / no-hdr10-opt / no-dhdr10-opt / no-idr-recovery-sei / analysis-reuse-level=0 / analysis-save-reuse-level=0 / analysis-load-reuse-level=0 / scale-factor=0 / refine-intra=0 / refine-inter=0 / refine-mv=1 / refine-ctu-distortion=0 / no-limit-sao / ctu-info=0 / no-lowpass-dct / refine-analysis-type=0 / copy-pic=1 / max-ausize-factor=1.0 / no-dynamic-refine / no-single-sei / no-hevc-aq / no-svt / no-field / qp-adaptation-range=1.00 / scenecut-aware-qp=0 / conformance-window-right-offset=0 / conformance-window-bottom-offset=0 / decoder-max-rate=0 / no-vbv-live-multi-pass
Default : Yes
Forced : No

Audio #1
ID : 2
Format : AC-3
Format/Info : Audio Coding 3
Commercial name : Dolby Digital
Codec ID : A_AC3
Duration : 1 h 59 min
Bit rate mode : Constant
Bit rate : 448 kb/s
Channel(s) : 6 channels
Channel layout : L R C LFE Ls Rs
Sampling rate : 48.0 kHz
Frame rate : 31.250 FPS (1536 SPF)
Compression mode : Lossy
Stream size : 382 MiB (7%)
Language : English
Service kind : Complete Main
Default : Yes
Forced : No

Audio #2
ID : 3
Format : AC-3
Format/Info : Audio Coding 3
Commercial name : Dolby Digital
Codec ID : A_AC3
Duration : 1 h 59 min
Bit rate mode : Constant
Bit rate : 448 kb/s
Channel(s) : 6 channels
Channel layout : L R C LFE Ls Rs
Sampling rate : 48.0 kHz
Frame rate : 31.250 FPS (1536 SPF)
Compression mode : Lossy
Stream size : 382 MiB (7%)
Language : Japanese
Service kind : Complete Main
Default : No
Forced : No

Text #1
ID : 4
Format : PGS
Muxing mode : zlib
Codec ID : S_HDMV/PGS
Codec ID/Info : Picture based subtitle format used on BDs/HD-DVDs
Duration : 1 h 58 min
Bit rate : 38.1 kb/s
Count of elements : 3128
Stream size : 32.3 MiB (1%)
Language : English
Default : No
Forced : No

Text #2
ID : 5
Format : PGS
Muxing mode : zlib
Codec ID : S_HDMV/PGS
Codec ID/Info : Picture based subtitle format used on BDs/HD-DVDs
Duration : 1 h 54 min
Bit rate : 1 286 b/s
Count of elements : 102
Stream size : 1.05 MiB (0%)
Title : Signs
Language : English
Default : Yes
Forced : No

Menu
00:00:00.000 : 00:00:00.000
00:02:45.165 : 00:02:45.165
00:07:00.420 : 00:07:00.420
00:10:28.002 : 00:10:28.002
00:15:40.648 : 00:15:40.648
00:19:58.739 : 00:19:58.739
00:29:19.841 : 00:29:19.841
00:34:11.967 : 00:34:11.967
00:38:05.783 : 00:38:05.783
00:44:45.391 : 00:44:45.391
00:49:55.409 : 00:49:55.409
00:55:01.381 : 00:55:01.381
01:02:33.833 : 01:02:33.833
01:08:42.535 : 01:08:42.535
01:14:48.234 : 01:14:48.234
01:16:45.893 : 01:16:45.893
01:23:46.939 : 01:23:46.939
01:27:29.244 : 01:27:29.244
01:33:16.341 : 01:33:16.341
01:38:40.456 : 01:38:40.456
01:42:22.261 : 01:42:22.261
01:48:53.193 : 01:48:53.193
01:54:02.836 : 01:54:02.836

Source:

Remux 29.1 GB

Coming Soon:

Cobain: Montage of Heck
Constantine
Contagion
Creed 4k
The Next Three Days
The Men Who Stare at Goats
The Mechanic
The Master
Rise of the Planet of the Apes 4k
Cop Land
Crash
Curse of the Golden Flower
Defiance
Dawn of the Planet of the Apes 4k
Mobile Suit Gundam: The Origin
Ballers S02
Mobile Suit Gundam: Iron-Blooded Orphans S01
Berserk: Golden Age Arc I - The Egg of the King


Trackers List

Tracker Name
udp://tracker.opentrackr.org:1337/announce
udp://tracker.coppersurfer.tk:6969/announce
udp://tracker.torrent.eu.org:451/announce
udp://tracker.tiny-vps.com:6969/announce
udp://open.stealth.si:80/announce

Torrent File Content

  • The Boy and the Beast (2015).mkv (5.5 GB)


Latest Searches