Tesla - The Great Radio Controversy (1989) (PBTHAL LP 24-96) [FLAC] vtwin88cube


    Seeders : 0      Leechers : 0

Downloads : 5
Language : English




Description

Tesla
The Great Radio Controversy (1989)
FLAC LOSSLESS 24bit-96kHz
PBTHAL Vinyl Rip


Not my rip. Any questions about the
eqipment used can be found in the
lineage text.


allmusic.com...

One of the band's best albums, The Great Radio Controversy retains the typical big-sounding production and anthemic hooks of '80s pop-metal, but Tesla adds a grittier, bluesier edge to their music than most of their peers. As on most of their records, Tesla's songwriting is consistently good but never quite great; however, "Love Song," "The Way It Is," and "Heaven's Trail (No Way Out)" are among their best, with melodies and riffs that aren't predictable, cookie-cutter product. The Great Radio Controversy broadens the sound of Mechanical Resonance somewhat with increased use of acoustic instruments, which provides more textural and dynamic contrasts, and the weaker moments are still enlivened by the twin-guitar attack of Frank Hannon and Tommy Skeoch. All in all, a fine effort.


foobar2000 1.4.3 / Dynamic Range Meter 1.1.1
log date: 2021-05-17 18:59:39

--------------------------------------------------------------------------------
Analyzed: Tesla / The Great Radio Controversy
--------------------------------------------------------------------------------

DR Peak RMS Duration Track
--------------------------------------------------------------------------------
DR11 -1.56 dB -14.26 dB 4:22 01-Hang Tough
DR11 -1.74 dB -15.22 dB 3:45 02-Lady Luck
DR13 -0.70 dB -15.68 dB 4:44 03-Heaven's Trail (No Way Out)
DR11 -2.87 dB -16.12 dB 4:29 04-Be A Man
DR12 -2.16 dB -16.04 dB 4:27 05-Lazy Days, Crazy Nights
DR12 -3.00 dB -16.72 dB 4:28 06-Did It For The Money
DR11 -3.27 dB -16.48 dB 3:45 07-Yesterdaze Gone
DR10 -2.16 dB -14.04 dB 5:06 08-Makin' Magic
DR12 -1.82 dB -16.19 dB 5:10 09-The Way It Is
DR11 -0.70 dB -15.51 dB 4:46 10-Flight To Nowhere
DR11 -1.92 dB -18.51 dB 5:26 11-Love Song
DR10 -1.65 dB -15.34 dB 4:59 12-Paradise
DR11 -1.67 dB -14.18 dB 4:25 13-Party's Over

Number of tracks: 13
Official DR value: DR11

Samplerate: 96000 Hz
Channels: 2
Bits per sample: 24
Bitrate: 3186 kbps
Codec: FLAC




Support the artists...
buy it if you like it!

Sharing since 2010
Thanks for Seeding!
Cheers ;)
88


Trackers List

Tracker Name
udp://tracker.openbittorrent.com:80/announce
udp://exodus.desync.com:6969/announce
udp://denis.stalker.upeer.me:6969/announce
udp://tracker.torrent.eu.org:451/announce
udp://tracker.coppersurfer.tk:6969/announce
udp://tracker.internetwarriors.net:1337/announce
udp://explodie.org:6969/announce
udp://tracker.leechers-paradise.org:6969/announce
http://tracker.opentrackr.org:1337/announce

Torrent File Content

Tesla - The Great Radio Controversy (1989) (PBTHAL LP 24-96) [FLAC] vtwin88cube
  • 00.-Tesla - The Great Radio Controversy.m3u (0.3 KB)
  • 01.-Hang Tough.flac (98.6 MB)
  • 02.-Lady Luck.flac (85.0 MB)
  • 03.-Heaven's Trail (No Way Out).flac (106.1 MB)
  • 04.-Be A Man.flac (99.0 MB)
  • 05.-Lazy Days, Crazy Nights.flac (97.5 MB)
  • 06.-Did It For The Money.flac (100.3 MB)
  • 07.-Yesterdaze Gone.flac (84.1 MB)
  • 08.-Makin' Magic.flac (115.4 MB)
  • 09.-The Way It Is.flac (114.0 MB)
  • 10.-Flight To Nowhere.flac (106.6 MB)
  • 11.-Love Song.flac (114.1 MB)
  • 12.-Paradise.flac (111.7 MB)
  • 13.-Party's Over.flac (100.6 MB)
  • DR11.txt (1.5 KB)
  • folder.jpg (58.6 KB)
  • lineage.txt (0.5 KB)


Latest Searches