Superman.Returns.2006.BRRip.XviD.B4ND1T69


    Seeders : 28      Leechers : 4

Downloads : 51
Language : English
tag : Action,Adventure,Fantasy,Sci-Fi,Superman,




Description

Superman.Returns.2006.BRRip.XviD.B4ND1T69



Director: Bryan Singer
Writers: Michael Dougherty (screenplay), Dan Harris (screenplay)
Stars: Brandon Routh, Kevin Spacey, Kate Bosworth

Plot/Story:
Superman returns to Earth after spending five years in space examining his homeworld Krypton. But he finds things have changed while he was gone, and he must once again prove himself important to the world.

General
Complete name : Superman.Returns.2006.BRRip.XviD.B4ND1T69.avi
Format : AVI
Format/Info : Audio Video Interleave
File size : 1.21 GiB
Duration : 2 h 34 min
Overall bit rate : 1 122 kb/s
Subtitles : Yes...Included(HI)

Video
ID : 0
Format : MPEG-4 Visual
Format profile : Advanced [email protected]
Format settings, BVOP : 2
Format settings, QPel : No
Format settings, GMC : No warppoints
Format settings, Matrix : Default (H.263)
Codec ID : XVID
Codec ID/Hint : XviD
Duration : 2 h 34 min
Bit rate : 981 kb/s
Width : 720 pixels
Height : 304 pixels
Display aspect ratio : 2.35:1
Frame rate : 23.976 (24000/1001) FPS
Color space : YUV
Chroma subsampling : 4:2:0
Bit depth : 8 bits
Scan type : Progressive
Compression mode : Lossy
Bits/(Pixel*Frame) : 0.187
Stream size : 1.06 GiB (87%)
Writing library : XviD 64

Audio
ID : 1
Format : MPEG Audio
Format version : Version 1
Format profile : Layer 3
Codec ID : 55
Codec ID/Hint : MP3
Duration : 2 h 34 min
Bit rate mode : Constant
Bit rate : 128 kb/s
Channel(s) : 2 channels
Sampling rate : 48.0 kHz
Compression mode : Lossy
Stream size : 141 MiB (11%)
Alignment : Aligned on interleaves
Interleave, duration : 24 ms (0.58 video frame)

Screenshots:










Please Seed For As Long As Possible
Or At Least 1:1 Ratio...Thanks
Enjoy Peeps


Trackers List

Tracker Name
udp://tracker.opentrackr.org:1337/announce
udp://exodus.desync.com:6969/announce
udp://open.demonii.si:1337/announce
udp://9.rarbg.to:2750/announce
udp://open.stealth.si:80/announce
udp://tracker.uw0.xyz:6969/announce
udp://tracker.tiny-vps.com:6969/announce
udp://fasttracker.foreverpirates.co:6969/announce
udp://explodie.org:6969/announce
udp://tracker.cyberia.is:6969/announce
udp://ipv4.tracker.harry.lu:80/announce
udp://opentracker.i2p.rocks:6969/announce
udp://tracker.moeking.me:6969/announce
udp://opentor.org:2710/announce
udp://tracker.dler.org:6969/announce

Torrent File Content

Superman.Returns.2006.BRRip.XviD.B4ND1T69
  • Downloaded from ProStyleX.txt (0.1 KB)
  • Downloaded from ETTV.txt (0.1 KB)
  • Downloaded from The Pirate Bay.txt (0.1 KB)
  • Downloaded from 1337x.txt (0.1 KB)
  • Downloaded from Glodls.to.txt (0.3 KB)
  • Superman.Returns.2006.BRRip.XviD.B4ND1T69.srt (83.9 KB)
  • Superman.Returns.2006.BRRip.XviD.B4ND1T69.avi (1.2 GB)


Latest Searches