Sputnik (2020) 1080p h264 Ac3 Ita Rus Sub Ita Eng - MIRCrew


    Seeders : 103      Leechers : 12

Movie : Sputnik
Downloads : 139
Language : Italian
Genres : Science Fiction,Drama,Thriller,
Release date : 2020
Summary : At the height of the Cold War, a Soviet spacecraft crash lands after a mission gone awry, leaving the commander as its only survivor. After a renowned Russian psychologist is brought in to evaluate the commander’s mental state, it becomes clear that something dangerous may have come back to Earth with him…




Description

Sputnik (2020) 1080p h264 Ac3 Ita Rus Sub Ita Eng - MIRCrew


NO FOUND ONLY ORIGINAL RELEASE


My release is always in double track audio italian and Original audio
for select it use VLC or dvd player home
not use wmp

ENGLISH SUBTITLE INSIDE

Sputnik (2020)

Quality MIRCrew on HD 1080p da 2,3 gb









Genere: Horror , Fantascienza
Anno: 2020
Regia: Egor Abramenko
Paese: Russia
Durata: 113 Min



Oksana Akinshina, Fyodor Bondarchuk, Pyotr Fyodorov, Anton Vasilev, Aleksej Demidov, Anna Nazarova, Aleksandr Marushev, Albrecht Zander, Vitaliya Kornienko, Vasiliy Zotov



Russia 1983. Durante una missione spaziale un'astronave russa in orbita per effettuare delle ricerche va incontro a un misterioso incidente che lascia soltanto un sopravvissuto, Konstantin. Tuttavia è chiaro che c'è qualcosa di strano nel cosmonauta rimasto in vita e il Colonnello Semiradov decide di chiamare una psichiatra per effettuare una valutazione di Konstantin. Presto si scopre che qualcosa di alieno si è impossessato dell'astronauta...



The lone survivor of an enigmatic spaceship incident hasn't returned back home alone-hiding inside his body is a dangerous creatur


















General

Complete name : Sputnik (2020) 1080p h264 Ac3 Ita Rus Sub Ita Eng - MIRCrew\Sputnik (2020) 1080p h264 Ac3 Ita Rus Sub Ita Eng - MIRCrew.mkv
Format : Matroska
Format version : Version 2
File size : 2.38 GiB
Duration : 1h 53mn
Overall bit rate : 2 985 Kbps
Movie name : MIRCrew
Encoded date : UTC 2021-05-29T16:35:04Z
Writing application : mkvmerge v5.8.0 ('No Sleep / Pillow') built on Sep 2 2012 15:37:04
Writing library : Lavf55.12.0

Video
ID : 1
Format : AVC
Format/Info : Advanced Video Codec
Format profile : [email protected]
Format settings, CABAC : Yes
Format settings, ReFrames : 4 frames
Codec ID : V_MPEG4/ISO/AVC
Duration : 1h 53mn
Bit rate : 2 600 Kbps
Width : 1 920 pixels
Height : 804 pixels
Display aspect ratio : 2.40:1
Frame rate : 24.000 fps
Color space : YUV
Chroma subsampling : 4:2:0
Bit depth : 8 bits
Scan type : Progressive
Bits/(Pixel*Frame) : 0.070
Stream size : 2.02 GiB (85%)
Title : MIRCrew
Writing library : x264 core 142 r2479 dd79a61
Encoding settings : cabac=1 / ref=1 / deblock=1:0:0
Language : Italian
Default : Yes
Forced : No
Color primaries : BT.709-5, BT.1361, IEC 61966-2-4, SMPTE RP177
Transfer characteristics : BT.709-5, BT.1361
Matrix coefficients : BT.709-5, BT.1361, IEC 61966-2-4 709, SMPTE RP177

Audio #1
ID : 2
Format : AC-3
Format/Info : Audio Coding 3
Mode extension : CM (complete main)
Codec ID : A_AC3
Duration : 1h 53mn
Bit rate mode : Constant
Bit rate : 192 Kbps
Channel(s) : 2 channels
Channel positions : Front: L R
Sampling rate : 48.0 KHz
Bit depth : 16 bits
Compression mode : Lossy
Delay relative to video : -83ms
Stream size : 157 MiB (6%)
Title : Ita Ac2 2.0
Language : Italian
Default : Yes
Forced : No

Audio #2
ID : 3
Format : AC-3
Format/Info : Audio Coding 3
Mode extension : CM (complete main)
Codec ID : A_AC3
Duration : 1h 53mn
Bit rate mode : Constant
Bit rate : 192 Kbps
Channel(s) : 2 channels
Channel positions : Front: L R
Sampling rate : 48.0 KHz
Bit depth : 16 bits
Compression mode : Lossy
Delay relative to video : -5ms
Stream size : 157 MiB (6%)
Title : Rus Ac3
Language : Russian
Default : No
Forced : No

Menu
00:00:00.000 : :Orbit-4 Spacecraft
00:06:23.833 : :Injuries
00:13:46.375 : :Scientific Research Institute
00:19:20.291 : :Health Status
00:26:42.666 : :What Is That?
00:32:50.750 : :Inseparable
00:41:02.833 : :Normal Environment
00:49:16.916 : :Contact
00:58:03.958 : :Perfect Source of Nutrition
01:05:42.541 : :God Wasn't Up There
01:13:30.500 : :Control
01:21:06.541 : :Diagnosis
01:27:27.583 : :Liquidation
01:33:58.416 : :I Was Wrong!
01:40:22.458 : :Rostov-on-Don
01:44:43.333 : :End Credits









Trackers List

Tracker Name
udp://tracker.torrent.eu.org:451/announce
udp://tracker.coppersurfer.tk:6969/announce
udp://tracker.pirateparty.gr:6969/announce
udp://tracker.leechers-paradise.org:6969/announce
udp://tracker.cyberia.is:6969/announce
udp://tracker.iamhansen.xyz:2000/announce
udp://p4p.arenabg.com:1337/announce
udp://explodie.org:6969/announce
udp://tracker.opentrackr.org:1337/announce
udp://tracker.tiny-vps.com:6969/announce
udp://exodus.desync.com:6969/announce
udp://ipv4.tracker.harry.lu:80/announce
udp://open.stealth.si:80/announce
udp://9.rarbg.to:2710/announce

Torrent File Content

Sputnik (2020) 1080p h264 Ac3 Ita Rus Sub Ita Eng - MIRCrew
  • Sputnik (2020) 1080p h264 Ac3 Ita Rus Sub Ita Eng - MIRCrew.eng.srt (68.9 KB)
  • Sputnik (2020) 1080p h264 Ac3 Ita Rus Sub Ita Eng - MIRCrew.ita.srt (62.6 KB)
  • Sputnik (2020) 1080p h264 Ac3 Ita Rus Sub Ita Eng - MIRCrew.mkv (2.4 GB)
  • Sputnik (2020) 1080p h264 Ac3 Ita Rus Sub Ita Eng - MIRCrew.srt (0.8 KB)

Related torrents

Torrent Name Added Size Seed Leech
11 months ago 2.1 GB 1188 371
11 months ago 7.5 GB 829 84
11 months ago 1 GB 789 274
5 months ago 2.2 GB 224 10
11 months ago 4 GB 168 78


Latest Searches