Snake.Eyes.G.I.Joe.Origins.2021.1080p.AMZN.WEBRip.DDP5.1.Atmos.x264-CM


    Seeders : 4278      Leechers : 866

Movie : Snake Eyes: G.I. Joe Origins
Downloads : 6816
Language : English
tag : MOVIE,RARBG,
Genres : Action,Adventure,
Release date : 2021
Summary : After saving the life of their heir apparent, tenacious loner Snake Eyes is welcomed into an ancient Japanese clan called the Arashikage where he is taught the ways of the ninja warrior. But, when secrets from his past are revealed, Snake Eyes' honor and allegiance will be tested – even if that means losing the trust of those closest to him.




Description





Infolink -> https://www.imdb.com/title/tt8404256/

Quote:


Video
ID : 1
Format : AVC
Format/Info : Advanced Video Codec
Format profile : [email protected]
Format settings : CABAC / 4 Ref Frames
Format settings, CABAC : Yes
Format settings, Reference frames : 4 frames
Codec ID : V_MPEG4/ISO/AVC
Duration : 2 h 1 min
Bit rate mode : Constant
Bit rate : 6 610 kb/s
Nominal bit rate : 10 000 kb/s
Width : 1 920 pixels
Height : 800 pixels
Display aspect ratio : 2.40:1
Frame rate mode : Constant
Frame rate : 23.976 (24000/1001) FPS
Color space : YUV
Chroma subsampling : 4:2:0
Bit depth : 8 bits
Scan type : Progressive
Bits/(Pixel*Frame) : 0.179
Stream size : 5.61 GiB (90%)
Default : Yes
Forced : No
Color range : Limited
Color primaries : BT.709
Transfer characteristics : BT.709
Matrix coefficients : BT.709

Audio
ID : 2
Format : E-AC-3 JOC
Format/Info : Enhanced AC-3 with Joint Object Coding
Commercial name : Dolby Digital Plus with Dolby Atmos
Codec ID : A_EAC3
Duration : 2 h 1 min
Bit rate mode : Constant
Bit rate : 768 kb/s
Channel(s) : 6 channels
Channel layout : L R C LFE Ls Rs
Sampling rate : 48.0 kHz
Frame rate : 31.250 FPS (1536 SPF)
Compression mode : Lossy
Stream size : 667 MiB (10%)
Title : English
Language : English
Service kind : Complete Main
Default : Yes
Forced : No
Complexity index : 16
Number of dynamic objects : 15
Bed channel count : 1 channel
Bed channel configuration : LFE

Text #1
ID : 3
Format : UTF-8
Codec ID : S_TEXT/UTF8
Codec ID/Info : UTF-8 Plain Text
Duration : 1 h 52 min
Bit rate : 31 b/s
Count of elements : 978
Stream size : 25.7 KiB (0%)
Title : English [SDH]
Language : English
Default : No
Forced : No

Text #2
ID : 4
Format : UTF-8
Codec ID : S_TEXT/UTF8
Codec ID/Info : UTF-8 Plain Text
Duration : 1 h 52 min
Bit rate : 27 b/s
Count of elements : 790
Stream size : 22.9 KiB (0%)
Title : English
Language : English
Default : No
Forced : No


Trackers List

Tracker Name
http://tracker.trackerfix.com:80/announce
udp://9.rarbg.me:2990/announce
udp://9.rarbg.to:2840/announce
udp://tracker.fatkhoala.org:13750/announce
udp://tracker.slowcheetah.org:14780/announce

Torrent File Content

Snake.Eyes.G.I.Joe.Origins.2021.1080p.AMZN.WEBRip.DDP5.1.Atmos.x264-CM
  • RARBG.txt (0.0 KB)
  • Snake.Eyes.G.I.Joe.Origins.2021.1080p.AMZN.WEB-DL.DDP5.1.Atmos.H.264-CM.mkv (6.3 GB)

Related torrents

Torrent Name Added Size Seed Leech
1 month ago 2.3 GB 5703 1714
1 month ago 1.4 GB 2726 682
1 month ago 796.9 MB 2193 333
1 month ago 1.9 GB 1629 373
1 month ago 985.3 MB 407 94


Latest Searches