Shershaah (2021) Hindi AMZN 720p WEB-DL x264 AC3 DD+5.1 ESub 1.3GB [HDWebMovies]


    Seeders : 970      Leechers : 217

Movie : Shershaah
Downloads : 40483
Language : Hindi
tag : Shershaah,2021,Hindi,AMZN,720p,WEB-DL,HDWebMovies,
Genres : Action,Drama,Thriller,War,
Release date : 2021
Summary : Inspired by the life of Captain Vikram Batra (PVC), the film celebrates his bravery, valiant spirit and honors his invaluable sacrifice during the Kargil War of 1999, at the age of 24.




Description


Encoded by                               :  ? ? ? ? ? ? ? ? ? ? ?




Movie name :


Shershaah (2021) Hindi AMZN 720p WEB-DL x264 AC3 DD+5.1 ESub 1.3GB [HDWebMovies]


General
Format : Matroska
Format version : Version 4
File size : 1.31 GiB
Duration : 2 h 15 min
Overall bit rate : 1 392 kb/s
Encoded date : UTC 2021-08-11 20:01:23
Writing application : mkvmerge v60.0.0 ('Are We Copies?') 64-bit
Writing library : libebml v1.4.2 + libmatroska v1.6.4

Video
ID : 1
Format : AVC
Format/Info : Advanced Video Codec
Format profile : [email protected]
Format settings : CABAC / 5 Ref Frames
Format settings, CABAC : Yes
Format settings, Reference frames : 5 frames
Codec ID : V_MPEG4/ISO/AVC
Duration : 2 h 15 min
Bit rate : 1 198 kb/s
Width : 1 280 pixels
Height : 528 pixels
Display aspect ratio : 2.40:1
Original display aspect ratio : 2.40:1
Frame rate mode : Constant
Frame rate : 24.000 FPS
Color space : YUV
Chroma subsampling : 4:2:0
Bit depth : 8 bits
Scan type : Progressive
Bits/(Pixel*Frame) : 0.074
Stream size : 1.13 GiB (86%)
Language : Hindi
Default : Yes
Forced : No
Color range : Limited
Color primaries : BT.709
Transfer characteristics : BT.709
Matrix coefficients : BT.709

Audio
ID : 2
Format : E-AC-3
Format/Info : Enhanced AC-3
Commercial name : Dolby Digital Plus
Codec ID : A_EAC3
Duration : 2 h 15 min
Bit rate mode : Constant
Bit rate : 192 kb/s
Channel(s) : 6 channels
Channel layout : L R C LFE Ls Rs
Sampling rate : 48.0 kHz
Frame rate : 31.250 FPS (1536 SPF)
Compression mode : Lossy
Stream size : 186 MiB (14%)
Language : Hindi
Service kind : Complete Main
Default : Yes
Forced : No

Text
ID : 3
Format : UTF-8
Codec ID : S_TEXT/UTF8
Codec ID/Info : UTF-8 Plain Text
Duration : 2 h 1 min
Bit rate : 61 b/s
Count of elements : 1892
Stream size : 54.9 KiB (0%)
Language : English
Default : Yes
Forced : No


                                       











Trackers List

Tracker Name
udp://tracker.nyaa.uk:6969/announce
udp://tracker.coppersurfer.tk:6969/announce
udp://tracker.opentrackr.org:1337/announce
udp://9.rarbg.com:2970/announce
udp://p4p.arenabg.com:1337/announce
udp://tracker.pirateparty.gr:6969/announce
udp://exodus.desync.com:6969/announce
udp://tracker.torrent.eu.org:451/announce
udp://tracker.tiny-vps.com:6969/announce
http://pow7.com:80/announce
udp://151.80.120.114:2710/announce
udp://9.rarbg.to:2790/announce
udp://open.stealth.si:80/announce
udp://tracker.leechers-paradise.org:6969/announce
http://t.nyaatracker.com:80/announce

Torrent File Content

  • Shershaah (2021) Hindi AMZN 720p WEB-DL x264 AC3 DD+5.1 ESub 1.3GB [HDWebMovies].mkv (1.3 GB)

Related torrents

Torrent Name Added Size Seed Leech
1 month ago 2.5 GB 496 102
1 month ago 897 MB 230 111
1 month ago 1.1 GB 178 84
1 month ago 819.6 MB 170 30
1 month ago 1.6 GB 155 25


Latest Searches