Shang-Chi and the Legend of the Ten Rings (2021) 720p CAMRip [NO LOGO] Dual Audio [Hindi-English]x264 AAC 1GB SpaSub [Themoviesboss]


    Seeders : 1303      Leechers : 913

Movie : Shang-Chi and the Legend of the Ten...
Downloads : 35884
Language : Hindi
tag : Shang-Chi,2021,720p,CAMRip,DualAudio,Hindi,HDWebMovie,
Genres : Action,Adventure,Fantasy,
Release date : 2021
Summary : Shang-Chi must confront the past he thought he left behind when he is drawn into the web of the mysterious Ten Rings organization.




Description

We Don't Add Watermark or Audio Tags.




Encoded by                               : Harley Quinn




Movie name :


Shang-Chi and the Legend of the Ten Rings (2021) 720p CAMRip [NO LOGO] Dual Audio [Hindi-English]x264 AAC 1GB SpaSub [Themoviesboss]


General
Format : Matroska
Format version : Version 4
File size : 1.03 GiB
Duration : 1 h 58 min
Overall bit rate mode : Variable
Overall bit rate : 1 239 kb/s
Encoded date : UTC 2021-09-07 07:37:19
Writing application : mkvmerge v60.0.0 ('Are We Copies?') 64-bit
Writing library : libebml v1.4.2 + libmatroska v1.6.4
Attachments : shang-chi-poster.jpg

Video
ID : 1
Format : AVC
Format/Info : Advanced Video Codec
Format profile : [email protected]
Format settings : CABAC / 1 Ref Frames
Format settings, CABAC : Yes
Format settings, Reference frames : 1 frame
Format settings, GOP : M=1, N=23
Codec ID : V_MPEG4/ISO/AVC
Duration : 1 h 58 min
Bit rate mode : Variable
Bit rate : 980 kb/s
Maximum bit rate : 1 499 kb/s
Width : 1 280 pixels
Height : 722 pixels
Display aspect ratio : 16:9
Frame rate mode : Constant
Frame rate : 23.976 (24000/1001) FPS
Color space : YUV
Chroma subsampling : 4:2:0
Bit depth : 8 bits
Scan type : Progressive
Bits/(Pixel*Frame) : 0.044
Stream size : 834 MiB (79%)
Default : Yes
Forced : No
Color range : Limited
Color primaries : BT.709
Transfer characteristics : BT.709
Matrix coefficients : BT.709

Audio #1
ID : 2
Format : AAC LC
Format/Info : Advanced Audio Codec Low Complexity
Codec ID : A_AAC-2
Duration : 1 h 58 min
Bit rate : 128 kb/s
Channel(s) : 2 channels
Channel layout : L R
Sampling rate : 44.1 kHz
Frame rate : 43.066 FPS (1024 SPF)
Compression mode : Lossy
Stream size : 109 MiB (10%)
Language : Hindi
Default : Yes
Forced : No

Audio #2
ID : 3
Format : MPEG Audio
Format version : Version 1
Format profile : Layer 3
Format settings : Joint stereo
Codec ID : A_MPEG/L3
Codec ID/Hint : MP3
Duration : 1 h 58 min
Bit rate mode : Variable
Bit rate : 128 kb/s
Channel(s) : 2 channels
Sampling rate : 44.1 kHz
Frame rate : 38.281 FPS (1152 SPF)
Compression mode : Lossy
Stream size : 109 MiB (10%)
Writing library : LAME3.98r
Encoding settings : -m j -V 0 -q 3 -lowpass 17 --abr 128
Language : English
Default : Yes
Forced : No


                                       










Trackers List

Tracker Name
udp://tracker.nyaa.uk:6969/announce
udp://tracker.coppersurfer.tk:6969/announce
udp://tracker.opentrackr.org:1337/announce
udp://9.rarbg.com:2860/announce
udp://p4p.arenabg.com:1337/announce
udp://tracker.pirateparty.gr:6969/announce
udp://exodus.desync.com:6969/announce
udp://tracker.torrent.eu.org:451/announce
udp://tracker.tiny-vps.com:6969/announce
http://pow7.com:80/announce
udp://9.rarbg.to:2720/announce
udp://open.stealth.si:80/announce
udp://tracker.leechers-paradise.org:6969/announce
http://t.nyaatracker.com:80/announce
udp://tracker.trackerfix.com:83/announce

Torrent File Content

  • Shang-Chi and the Legend of the Ten Rings (2021) 720p CAMRip [NO LOGO] Dual Audio [Hindi-English]x264 AAC 1GB SpaSub [Themoviesboss].mkv (1.0 GB)


Latest Searches