Selfie 2019 Marathi Play 720p Web-DL x264 AAC [TMB]


    Seeders : 4      Leechers : 1

Movie : Selfie
Downloads : 85
Language : Marathi
Genres : Comedy,
Release date : 2019
Summary : In a world where digital technology has invaded our lives, some of us end up cracking. Addict or technophobe, with family or at school, at work or in love, SELFIE tells the comic and wild destinies of Homo Numericus on the verge of a nervous breakdown.




Description





















General
Complete name : Selfie 2019 Marathi Play 720p Web-DL x264 AAC [TMB].mkv
Format : Matroska
Format version : Version 4
File size : 1.16 GiB
Duration : 1 h 41 min
Overall bit rate : 1 630 kb/s

Video
Format : AVC
Format/Info : Advanced Video Codec
Format profile : [email protected]
Format settings : CABAC / 4 Ref Frames
Format settings, CABAC : Yes
Format settings, Reference frames : 4 frames
Codec ID : V_MPEG4/ISO/AVC
Duration : 1 h 41 min
Bit rate : 1 500 kb/s
Width : 1 280 pixels
Height : 720 pixels
Display aspect ratio : 16:9
Frame rate mode : Constant
Frame rate : 25.000 FPS
Color space : YUV
Chroma subsampling : 4:2:0
Bit depth : 8 bits
Scan type : Progressive
Bits/(Pixel*Frame) : 0.065
Stream size : 1.06 GiB (92%)

Audio
Format : AAC LC
Format/Info : Advanced Audio Codec Low Complexity
Codec ID : A_AAC-2
Duration : 1 h 41 min
Bit rate : 128 kb/s
Channel(s) : 2 channels
Channel layout : L R
Sampling rate : 48.0 kHz
Frame rate : 46.875 FPS (1024 SPF)
Compression mode : Lossy
Delay relative to video : -80 ms
Stream size : 92.9 MiB (8%)



Uploaded & Shared by TMB

Seeding 24x7... Extreme Seeding...



Enjoy!



Trackers List

Tracker Name
udp://tracker.coppersurfer.tk:6969/announce
udp://tracker.opentrackr.org:1337/announce
udp://tracker.leechers-paradise.org:6969/announce
udp://tracker.internetwarriors.net:1337/announce
udp://p4p.arenabg.com:1337/announce
udp://9.rarbg.to:2710/announce
udp://9.rarbg.me:2710/announce
udp://exodus.desync.com:6969/announce
udp://tracker.cyberia.is:6969/announce
udp://open.stealth.si:80/announce
udp://tracker.tiny-vps.com:6969/announce
udp://retracker.lanta-net.ru:2710/announce
udp://tracker.torrent.eu.org:451/announce
udp://tracker.moeking.me:6969/announce
udp://ipv4.tracker.harry.lu:80/announce

Torrent File Content

  • Selfie 2019 Marathi Play 720p Web-DL x264 AAC [TMB].mkv (1.2 GB)

Related torrents

Torrent Name Added Size Seed Leech
13 days ago 2.2 GB 8 1


Latest Searches