Say.Your.Prayers.2020.1080P.Web-Dl.HEVC [Tornment666]


    Seeders : 7      Leechers : 1

Movie : Say Your Prayers
Downloads : 41
Language : English
Genres : Comedy,Crime,
Release date : 2020
Summary : Two Christian hitmen brothers are hired to assassinate a famed atheist writer.




Description

https://www.imdb.com/title/tt4229826/

Code:



General

Format : MPEG-4
Format profile : Base Media / Version 2
Codec ID : mp42 (isom/iso2/mp41)
File size : 549 MiB
Duration : 1 h 24 min
Overall bit rate : 907 kb/s
Encoded date : UTC 2021-09-07 20:31:58
Tagged date : UTC 2021-09-07 20:31:58

Video

ID : 1
Format : HEVC
Format/Info : High Efficiency Video Coding
Format profile : [email protected]@Main
Codec ID : hvc1
Codec ID/Info : High Efficiency Video Coding
Duration : 1 h 24 min
Bit rate : 742 kb/s
Width : 1 920 pixels
Height : 804 pixels
Display aspect ratio : 2.40:1
Frame rate mode : Variable
Frame rate : 23.976 (23976/1000) FPS
Minimum frame rate : 15.980 FPS
Maximum frame rate : 23.981 FPS
Original frame rate : 23.976 (24000/1001) FPS
Color space : YUV
Chroma subsampling : 4:2:0
Bit depth : 8 bits
Bits/(Pixel*Frame) : 0.020
Stream size : 448 MiB (82%)
Writing library : x265 3.2.1+1-b5c86a64bbbe:[Windows][GCC 9.2.0][64 bit] 8bit+10bit+12bit
Encoded date : UTC 2021-09-07 20:31:58
Tagged date : UTC 2021-09-07 20:31:58
Color range : Limited
Color primaries : BT.709
Transfer characteristics : BT.709
Matrix coefficients : BT.709
Codec configuration box : hvcC

Audio

ID : 2
Format : AAC LC
Format/Info : Advanced Audio Codec Low Complexity
Codec ID : mp4a-40-2
Duration : 1 h 24 min
Bit rate mode : Constant
Bit rate : 160 kb/s
Channel(s) : 2 channels
Channel layout : L R
Sampling rate : 48.0 kHz
Frame rate : 46.875 FPS (1024 SPF)
Compression mode : Lossy
Stream size : 96.6 MiB (18%)
Title : Stereo
Language : English
Default : Yes
Alternate group : 1
Encoded date : UTC 2021-09-07 20:31:58
Tagged date : UTC 2021-09-07 20:31:58









Trackers List

Tracker Name
udp://tracker.opentrackr.org:1337
udp://tracker.leechers-paradise.org:6969/announce
udp://9.rarbg.to:2920/announce

Torrent File Content

Say.Your.Prayers.2020.1080P.Web-Dl.HEVC [Tornment666]
  • Say.Your.Prayers.2020.1080P.Web-Dl.HEVC [Tornment666].mp4 (548.7 MB)
  • Tornment666.pgp (3.1 KB)

Related torrents

Torrent Name Added Size Seed Leech
12 months ago 796.4 MB 82 9
15 days ago 1.9 GB 17 6
12 months ago 2.9 GB 16 5
15 days ago 4.4 GB 12 6


Latest Searches