Saving.Paradise.2021.1080P.Web-Dl.HEVC [Tornment666]


    Seeders : 25      Leechers : 2

Movie : Saving Paradise
Downloads : 299
Language : English
Genres : Drama,
Release date : 2021
Summary : A ruthless corporate raider is forced to return to his small town roots where he suddenly inherits his father's nearly bankrupt pencil factory, which is the heart and soul of the depressed community. With the foreclosure deadline looming, he must decide to either let it close, or join the community's fight to save it.




Description

https://www.imdb.com/title/tt3982212/

Code:



General

Format : MPEG-4
Format profile : Base Media / Version 2
Codec ID : mp42 (isom/iso2/mp41)
File size : 1 006 MiB
Duration : 1 h 42 min
Overall bit rate : 1 375 kb/s
Encoded date : UTC 2021-09-07 17:20:51
Tagged date : UTC 2021-09-07 17:20:51

Video

ID : 1
Format : HEVC
Format/Info : High Efficiency Video Coding
Format profile : [email protected]@Main
Codec ID : hvc1
Codec ID/Info : High Efficiency Video Coding
Duration : 1 h 42 min
Bit rate : 1 208 kb/s
Width : 1 920 pixels
Height : 808 pixels
Display aspect ratio : 2.40:1
Original display aspect ratio : 2.40:1
Frame rate mode : Variable
Frame rate : 23.976 (23976/1000) FPS
Minimum frame rate : 19.173 FPS
Maximum frame rate : 23.981 FPS
Original frame rate : 23.976 (24000/1001) FPS
Color space : YUV
Chroma subsampling : 4:2:0
Bit depth : 8 bits
Bits/(Pixel*Frame) : 0.032
Stream size : 884 MiB (88%)
Writing library : x265 3.2.1+1-b5c86a64bbbe:[Windows][GCC 9.2.0][64 bit] 8bit+10bit+12bit
Encoded date : UTC 2021-09-07 17:20:51
Tagged date : UTC 2021-09-07 17:20:51
Color range : Limited
Color primaries : BT.709
Transfer characteristics : BT.709
Matrix coefficients : BT.709
Codec configuration box : hvcC

Audio

ID : 2
Format : AAC LC
Format/Info : Advanced Audio Codec Low Complexity
Codec ID : mp4a-40-2
Duration : 1 h 42 min
Bit rate mode : Constant
Bit rate : 160 kb/s
Channel(s) : 2 channels
Channel layout : L R
Sampling rate : 48.0 kHz
Frame rate : 46.875 FPS (1024 SPF)
Compression mode : Lossy
Stream size : 117 MiB (12%)
Title : Stereo
Language : English
Default : Yes
Alternate group : 1
Encoded date : UTC 2021-09-07 17:20:51
Tagged date : UTC 2021-09-07 17:20:51









Trackers List

Tracker Name
udp://tracker.opentrackr.org:1337
udp://tracker.leechers-paradise.org:6969/announce
udp://9.rarbg.to:2920/announce

Torrent File Content

Saving.Paradise.2021.1080P.Web-Dl.HEVC [Tornment666]
  • Saving.Paradise.2021.1080P.Web-Dl.HEVC [Tornment666].mp4 (1,006.1 MB)
  • Tornment666.pgp (3.1 KB)

Related torrents

Torrent Name Added Size Seed Leech
18 days ago 1.4 GB 52 8
18 days ago 4.2 GB 14 3
15 days ago 6.7 GB 5 8
15 days ago 3 GB 0 4


Latest Searches