Sarileru Neekevvaru (2020) [HQ Hindi Dubbed] 720p WEBRip - Shieldli - LHM123


    Seeders : 116      Leechers : 36

Movie : Sarileru Neekevvaru
Downloads : 5393
Language : Hindi
tag : "Action","Drama","Mystery",
Genres : Action,
Release date : 2020
Summary : A tough army major is deployed to Kurnool on a mission to keep the country safe from external threats.




Description



No Ads No Watermark



General
Unique ID : 263992871056864266232838609036091221129 (0xC69B2D73BDB16F282A2DD0648A866489)
Complete name : Sarileru Neekevvaru (2020) [HQ Hindi Dubbed] 720p WEBRip - Shieldli - LHM123.mkv
Format : Matroska
Format version : Version 4
File size : 1.44 GiB
Duration : 2 h 51 min
Overall bit rate mode : Variable
Overall bit rate : 1 207 kb/s
Movie name : Uploaded By ::::Shieldli - LHM123::::
Encoded date : UTC 2021-08-11 16:46:57 / UTC
Writing application : mkvmerge v53.0.0 ('Fool's Gold') 64-bit
Writing library : libebml v1.4.1 + libmatroska v1.6.2 / Lavf55.12.0
Attachments : Logo-Attachment.png

Video
ID : 1
Format : AVC
Format/Info : Advanced Video Codec
Format profile : [email protected]
Format settings : CABAC / 1 Ref Frames
Format settings, CABAC : Yes
Format settings, Reference frames : 1 frame
Format settings, GOP : M=1, N=24
Codec ID : V_MPEG4/ISO/AVC
Duration : 2 h 51 min
Bit rate mode : Variable
Bit rate : 1 076 kb/s
Maximum bit rate : 1 650 kb/s
Width : 1 280 pixels
Height : 544 pixels
Display aspect ratio : 2.35:1
Frame rate mode : Constant
Frame rate : 24.000 FPS
Color space : YUV
Chroma subsampling : 4:2:0
Bit depth : 8 bits
Scan type : Progressive
Bits/(Pixel*Frame) : 0.064
Stream size : 1.29 GiB (89%)
Title : Shieldli - LHM123
Default : Yes
Forced : No
Color range : Limited
Color primaries : BT.709
Transfer characteristics : BT.709
Matrix coefficients : BT.709

Audio
ID : 2
Format : AAC LC
Format/Info : Advanced Audio Codec Low Complexity
Codec ID : A_AAC-2
Duration : 2 h 51 min
Bit rate : 128 kb/s
Channel(s) : 2 channels
Channel layout : L R
Sampling rate : 44.1 kHz
Frame rate : 43.066 FPS (1024 SPF)
Compression mode : Lossy
Stream size : 157 MiB (11%)
Title : Shieldli - LHM123
Default : Yes
Forced : No

Text
ID : 3
Format : ASS
Codec ID : S_TEXT/ASS
Codec ID/Info : Advanced Sub Station Alpha
Duration : 2 h 47 min
Bit rate : 122 b/s
Count of elements : 2521
Compression mode : Lossless
Stream size : 151 KiB (0%)
Title : Shieldli - LHM123
Language : English
Default : No
Forced : No






Trackers List

Tracker Name
udp://fasttracker.foreverpirates.co:6969/announce
udp://tracker.opentrackr.org:1337/announce
udp://explodie.org:6969/announce
udp://tracker.cyberia.is:6969/announce
udp://ipv4.tracker.harry.lu:80/announce
udp://tracker.uw0.xyz:6969/announce
udp://opentracker.i2p.rocks:6969/announce
udp://tracker.birkenwald.de:6969/announce
udp://tracker.torrent.eu.org:451/announce
udp://tracker.moeking.me:6969/announce
udp://opentor.org:2710/announce
udp://tracker.dler.org:6969/announce
udp://tracker.zer0day.to:1337/announce
udp://tracker.leechers-paradise.org:6969/announce
udp://coppersurfer.tk:6969/announce

Torrent File Content

  • Sarileru Neekevvaru (2020) [HQ Hindi Dubbed] 720p WEBRip - Shieldli - LHM123.mkv (1.4 GB)


Latest Searches