Sacrilege.2020.1080P.Bluray.HEVC [Tornment666]


    Seeders : 7      Leechers : 3

Movie : Sacrilege
Downloads : 50
Language : English
Genres : Horror,
Release date : 2020
Summary : Four lifelong friends head to a remote lodge for a weekend of fun. What begins as an idyllic retreat quickly descends into a fight for their lives when a local Pagan cult offer them up to their Goddess as a sacrifice for the Solstice.




Description

https://www.imdb.com/title/tt10660954/

Code:



General

Format : MPEG-4
Format profile : Base Media / Version 2
Codec ID : mp42 (isom/iso2/mp41)
File size : 883 MiB
Duration : 1 h 23 min
Overall bit rate : 1 485 kb/s
Encoded date : UTC 2021-09-07 14:45:42
Tagged date : UTC 2021-09-07 14:45:42

Video

ID : 1
Format : HEVC
Format/Info : High Efficiency Video Coding
Format profile : [email protected]@Main
Codec ID : hvc1
Codec ID/Info : High Efficiency Video Coding
Duration : 1 h 23 min
Bit rate : 1 319 kb/s
Width : 1 920 pixels
Height : 804 pixels
Display aspect ratio : 2.40:1
Frame rate mode : Variable
Frame rate : 23.870 FPS
Minimum frame rate : 18.750 FPS
Maximum frame rate : 24.000 FPS
Original frame rate : 24.000 FPS
Color space : YUV
Chroma subsampling : 4:2:0
Bit depth : 8 bits
Bits/(Pixel*Frame) : 0.036
Stream size : 784 MiB (89%)
Writing library : x265 3.2.1+1-b5c86a64bbbe:[Windows][GCC 9.2.0][64 bit] 8bit+10bit+12bit
Encoded date : UTC 2021-09-07 14:45:42
Tagged date : UTC 2021-09-07 14:45:42
Color range : Limited
Color primaries : BT.709
Transfer characteristics : BT.709
Matrix coefficients : BT.709
Codec configuration box : hvcC

Audio

ID : 2
Format : AAC LC
Format/Info : Advanced Audio Codec Low Complexity
Codec ID : mp4a-40-2
Duration : 1 h 23 min
Bit rate mode : Constant
Bit rate : 161 kb/s
Channel(s) : 2 channels
Channel layout : L R
Sampling rate : 48.0 kHz
Frame rate : 46.875 FPS (1024 SPF)
Compression mode : Lossy
Stream size : 95.4 MiB (11%)
Title : Stereo
Language : English
Default : Yes
Alternate group : 1
Encoded date : UTC 2021-09-07 14:45:42
Tagged date : UTC 2021-09-07 14:45:42









Trackers List

Tracker Name
udp://tracker.opentrackr.org:1337
udp://tracker.leechers-paradise.org:6969/announce
udp://9.rarbg.to:2920/announce

Torrent File Content

Sacrilege.2020.1080P.Bluray.HEVC [Tornment666]
  • Sacrilege.2020.1080P.Bluray.HEVC [Tornment666].mp4 (883.0 MB)
  • Tornment666.pgp (3.1 KB)

Related torrents

Torrent Name Added Size Seed Leech
6 months ago 796.2 MB 68 8
16 days ago 795.7 MB 26 2
16 days ago 10.2 GB 12 6
6 months ago 3 GB 9 4
16 days ago 1.4 GB 9 1


Latest Searches