Raven's Home Season 4 1080p Amazon WEB-DL DDP5.1 H.264-LAZY


    Seeders : 2      Leechers : 4

Description

Raven's Home:

General
Unique ID : 295336742010892489117078899468259245475 (0xDE2FC99A5D218D328A95299B46E33DA3)
Complete name : Ravens.Home.S04E01.Raven.About.Bunkd.1080p.AMZN.WEB-DL.DDP5.1.H.264-LAZY.mkv
Format : Matroska
Format version : Version 4
File size : 3.51 GiB
Duration : 48 min 17 s
Overall bit rate : 10.4 Mb/s
Encoded date : UTC 2021-05-30 20:22:25
Writing application : mkvmerge v57.0.0 ('Till The End') 64-bit
Writing library : libebml v1.4.2 + libmatroska v1.6.4

Video
ID : 1
Format : AVC
Format/Info : Advanced Video Codec
Format profile : [email protected]
Format settings : CABAC / 4 Ref Frames
Format settings, CABAC : Yes
Format settings, RefFrames : 4 frames
Codec ID : V_MPEG4/ISO/AVC
Duration : 48 min 17 s
Bit rate mode : Constant
Bit rate : 10 000 kb/s
Width : 1 920 pixels
Height : 1 080 pixels
Display aspect ratio : 16:9
Frame rate mode : Constant
Frame rate : 23.976 (24000/1001) FPS
Color space : YUV
Chroma subsampling : 4:2:0
Bit depth : 8 bits
Scan type : Progressive
Bits/(Pixel*Frame) : 0.201
Stream size : 3.30 GiB (94%)
Default : Yes
Forced : No
Color range : Limited
Color primaries : BT.709
Transfer characteristics : BT.709
Matrix coefficients : BT.709

Audio
ID : 2
Format : E-AC-3
Format/Info : Enhanced AC-3
Commercial name : Dolby Digital Plus
Codec ID : A_EAC3
Duration : 48 min 17 s
Bit rate mode : Constant
Bit rate : 640 kb/s
Channel(s) : 6 channels
Channel layout : L R C LFE Ls Rs
Sampling rate : 48.0 kHz
Frame rate : 31.250 FPS (1536 SPF)
Compression mode : Lossy
Stream size : 221 MiB (6%)
Language : English
Service kind : Complete Main
Default : Yes
Forced : No

Text
ID : 3
Format : UTF-8
Codec ID : S_TEXT/UTF8
Codec ID/Info : UTF-8 Plain Text
Duration : 48 min 6 s
Bit rate : 98 b/s
Count of elements : 1023
Stream size : 34.6 KiB (0%)
Language : English
Default : No
Forced : No

Screenshots:


Trackers List

Tracker Name
udp://tracker.leechers-paradise.org:6969/announce
udp://tracker.coppersurfer.tk:6969/announce
udp://tracker.opentrackr.org:1337/announce
udp://tracker.zer0day.to:1337/announce
udp://eddie4.nl:6969/announce

Torrent File Content

Ravens.Home.S04.1080p.AMZN.WEB-DL.DDP5.1.H.264-LAZY
  • Ravens.Home.S04E01.Raven.About.Bunkd.1080p.AMZN.WEB-DL.DDP5.1.H.264-LAZY.mkv (3.5 GB)
  • Ravens.Home.S04E02.Dont.Trust.the.G.in.Apartment.4B.1080p.AMZN.WEB-DL.DDP5.1.H.264-LAZY.mkv (1.8 GB)
  • Ravens.Home.S04E03.Baking.Bad.1080p.AMZN.WEB-DL.DDP5.1.H.264-LAZY.mkv (1.8 GB)
  • Ravens.Home.S04E04.Big.Little.Surprise.1080p.AMZN.WEB-DL.DDP5.1.H.264-LAZY.mkv (1.7 GB)
  • Ravens.Home.S04E05.Tesscue.Me.1080p.AMZN.WEB-DL.DDP5.1.H.264-LAZY.mkv (1.7 GB)
  • Ravens.Home.S04E06.Sharp.Job-Jects.1080p.AMZN.WEB-DL.DDP5.1.H.264-LAZY.mkv (1.8 GB)
  • Ravens.Home.S04E07.How.I.Met.Your.Mentor.1080p.AMZN.WEB-DL.DDP5.1.H.264-LAZY.mkv (1.8 GB)
  • Ravens.Home.S04E08.Mad.About.Yuletide.1080p.AMZN.WEB-DL.DDP5.1.H.264-LAZY.mkv (3.4 GB)
  • Ravens.Home.S04E09.Wheel.of.Misfortune.1080p.AMZN.WEB-DL.DDP5.1.H.264-LAZY.mkv (1.8 GB)
  • Ravens.Home.S04E10.Diffrent.Strikes.1080p.AMZN.WEB-DL.DDP5.1.H.264-LAZY.mkv (1.6 GB)
  • Ravens.Home.S04E11.Fresh.Off.the.Note.1080p.AMZN.WEB-DL.DDP5.1.H.264-LAZY.mkv (1.7 GB)
  • Ravens.Home.S04E12.10.Things.Debate.About.You.1080p.AMZN.WEB-DL.DDP5.1.H.264-LAZY.mkv (1.7 GB)
  • Ravens.Home.S04E13.Plays.of.Our.Lives.1080p.AMZN.WEB-DL.DDP5.1.H.264-LAZY.mkv (1.8 GB)
  • Ravens.Home.S04E14.The.Slumber.Years.1080p.AMZN.WEB-DL.DDP5.1.H.264-LAZY.mkv (1.8 GB)
  • Ravens.Home.S04E15.Bless.This.Tess.1080p.AMZN.WEB-DL.DDP5.1.H.264-LAZY.mkv (1.8 GB)
  • Ravens.Home.S04E16.American.Torah.Story.1080p.AMZN.WEB-DL.DDP5.1.H.264-LAZY.mkv (1.8 GB)
  • Ravens.Home.S04E17.Say.Yes.to.the.Protest.1080p.AMZN.WEB-DL.DDP5.1.H.264-LAZY.mkv (1.7 GB)
  • Ravens.Home.S04E18.Saved.by.the.Belle.1080p.AMZN.WEB-DL.DDP5.1.H.264-LAZY.mkv (1.8 GB)
  • Ravens.Home.S04E19.So.You.Think.You.Can.Drive.1080p.AMZN.WEB-DL.DDP5.1.H.264-LAZY.mkv (1.7 GB)


Latest Searches