Pope.Joan - La.Papessa.2009.iTA.ENG.AC3.SUB.iTA.ENG.BluRay.1080p.x264.jeddak-MIRCrew


    Seeders : 7      Leechers : 2

Downloads : 35
Language : English




Description






La Papessa


Titolo originale: Die Päpstin
Genere: Drammatico, Storico
Anno: 2009
Regia: Sönke Wortmann
Attori: Johanna Wokalek, David Wenham, John Goodman, Iain Glen, Edward Petherbridge, Anatole Taubman, Lotte Flack, Tigerlily Hutchinson, Jördis Triebel, Alexander Held, Oliver Cotton, Nicholas Woodeson, Claudia Michelsen, Oliver Nagele, Christian Redl, Marc Bischoff, Suzanne Bertish, Tom Strauss
Paese: Germania, Gran Bretagna, Italia, Spagna
Durata: 141 min
Distribuzione: Medusa Film
Montaggio: Hans Funck
Produzione: ARD Degeto Film, Constantin Film, Dune Films


814 d.c.: Johanna (JOHANNA WOKALEK) sembra condannata a vivere una vita che non le piace, con un destino già scritto, tipico delle ragazze di quell'epoca: lavoro, figli e una morte prematura. Ma Johanna, spinta dalla fede e dalla convinzione che il destino abbia in serbo per lei qualcosa di diverso e che Dio le stia mostrando la via da seguire, si oppone al severo padre (IAIN GLEN) e alle regole della Chiesa, anche a costo di pagare un prezzo molto alto. Johanna frequenta la scuola nella cattedrale di Dorstadt, dove conosce il Conte Gerold (DAVID WENHAM), nobiluomo alla corte del vescovo. La loro amicizia si trasforma presto in amore, ma quando Gerold parte per la guerra, Johanna ricomincia a pensare al suo futuro e ben presto capisce che non riuscirà ad ottenere ciò che vuole proprio perché è una donna. Ed è allora che prende una decisione che avrà conseguenze enormi...




















General
Unique ID : 205203799144429347788788501776849918437 (0x9A60D06BF7418632A5ABE9B9499759E5)
Complete name : La.Papessa.2009.iTA.ENG.AC3.SUB.iTA.ENG.BluRay.1080p.x264.jeddak-MIRCrew.mkv
Format : Matroska
Format version : Version 2
File size : 3.34 GiB
Duration : 2 h 21 min
Overall bit rate : 3 385 kb/s
Movie name : La.Papessa.2009.iTA.ENG.AC3.SUB.iTA.ENG.BluRay.1080p.x264.jeddak-MIRCrew
Encoded date : UTC 2021-09-09 16:31:26
Writing application : mkvmerge v5.6.0 ('Kenya Kane') built on May 27 2012 16:44:04
Writing library : libebml v1.2.3 + libmatroska v1.3.0 / Lavf58.29.100

Video
ID : 1
Format : AVC
Format/Info : Advanced Video Codec
Format profile : [email protected]
Format settings : CABAC / 4 Ref Frames
Format settings, CABAC : Yes
Format settings, Reference : 4 frames
Codec ID : V_MPEG4/ISO/AVC
Duration : 2 h 21 min
Bit rate : 2 500 kb/s
Width : 1 920 pixels
Height : 816 pixels
Display aspect ratio : 2.35:1
Frame rate mode : Constant
Frame rate : 23.976 (24000/1001) FPS
Color space : YUV
Chroma subsampling : 4:2:0
Bit depth : 8 bits
Scan type : Progressive
Bits/(Pixel*Frame) : 0.067
Stream size : 2.39 GiB (72%)
Title : ...::: jeddak MIRCrew :::...
Writing library : x264 core 148
Encoding settings : cabac=1 / ref=3 / deblock=1:-1:-1 / analyse=0x3:0x113 / me=hex / subme=7 / psy=1 / psy_rd=1.00:0.15 / mixed_ref=1 / me_range=16 / chroma_me=1 / trellis=1 / 8x8dct=1 / cqm=0 / deadzone=21,11 / fast_pskip=1 / chroma_qp_offset=-3 / threads=6 / lookahead_threads=1 / sliced_threads=0 / nr=0 / decimate=1 / interlaced=0 / bluray_compat=0 / constrained_intra=0 / bframes=3 / b_pyramid=2 / b_adapt=1 / b_bias=0 / direct=1 / weightb=1 / open_gop=0 / weightp=2 / keyint=240 / keyint_min=24 / scenecut=40 / intra_refresh=0 / rc_lookahead=40 / rc=abr / mbtree=1 / bitrate=2500 / ratetol=1.0 / qcomp=0.60 / qpmin=0 / qpmax=69 / qpstep=4 / vbv_maxrate=62500 / vbv_bufsize=78125 / nal_hrd=none / filler=0 / ip_ratio=1.40 / aq=1:1.00
Default : Yes
Forced : No
Color range : Limited
Color primaries : BT.709
Transfer characteristics : BT.709
Matrix coefficients : BT.709

Audio #1
ID : 2
Format : AC-3
Format/Info : Audio Coding 3
Commercial name : Dolby Digital
Codec ID : A_AC3
Duration : 2 h 21 min
Bit rate mode : Constant
Bit rate : 448 kb/s
Channel(s) : 6 channels
Channel layout : L R C LFE Ls Rs
Sampling rate : 48.0 kHz
Frame rate : 31.250 FPS (1536 SPF)
Compression mode : Lossy
Delay relative to video : -5 ms
Stream size : 452 MiB (13%)
Title : iTA AC3 5.1
Language : Italian
Service kind : Complete Main
Default : Yes
Forced : No

Audio #2
ID : 3
Format : AC-3
Format/Info : Audio Coding 3
Commercial name : Dolby Digital
Codec ID : A_AC3
Duration : 2 h 21 min
Bit rate mode : Constant
Bit rate : 448 kb/s
Channel(s) : 6 channels
Channel layout : L R C LFE Ls Rs
Sampling rate : 48.0 kHz
Frame rate : 31.250 FPS (1536 SPF)
Compression mode : Lossy
Delay relative to video : -5 ms
Stream size : 452 MiB (13%)
Title : ENG AC3 5.1
Language : English
Service kind : Complete Main
Default : No
Forced : No

Text #1
ID : 4
Format : PGS
Muxing mode : zlib
Codec ID : S_HDMV/PGS
Codec ID/Info : Picture based subtitle format used on BDs/HD-DVDs
Duration : 2 h 6 min
Title : iTA FORCED - PGS
Language : Italian
Default : Yes
Forced : Yes

Text #2
ID : 5
Format : UTF-8
Codec ID : S_TEXT/UTF8
Codec ID/Info : UTF-8 Plain Text
Title : iTA FORCED - SRT
Language : Italian
Default : No
Forced : Yes

Text #3
ID : 6
Format : UTF-8
Codec ID : S_TEXT/UTF8
Codec ID/Info : UTF-8 Plain Text
Title : ENG FORCED - SRT
Language : English
Default : No
Forced : Yes

Text #4
ID : 7
Format : PGS
Muxing mode : zlib
Codec ID : S_HDMV/PGS
Codec ID/Info : Picture based subtitle format used on BDs/HD-DVDs
Duration : 2 h 13 min
Title : iTA NON UDENTI - PGS
Language : Italian
Default : No
Forced : No

Text #5
ID : 8
Format : UTF-8
Codec ID : S_TEXT/UTF8
Codec ID/Info : UTF-8 Plain Text
Title : iTA NON UDENTI - SRT
Language : Italian
Default : No
Forced : No

Text #6
ID : 9
Format : UTF-8
Codec ID : S_TEXT/UTF8
Codec ID/Info : UTF-8 Plain Text
Title : ENG REGULAR - SRT
Language : English
Default : No
Forced : No

Menu
00:00:00.000 : :Capitolo 01
00:05:01.092 : :Capitolo 02
00:08:10.991 : :Capitolo 03
00:13:09.539 : :Capitolo 04
00:19:30.961 : :Capitolo 05
00:24:33.722 : :Capitolo 06
00:28:53.357 : :Capitolo 07
00:31:13.121 : :Capitolo 08
00:38:31.267 : :Capitolo 09
00:42:54.781 : :Capitolo 10
00:46:25.032 : :Capitolo 11
00:53:13.190 : :Capitolo 12
00:57:37.871 : :Capitolo 13
01:00:48.478 : :Capitolo 14
01:07:27.961 : :Capitolo 15
01:09:45.056 : :Capitolo 16
01:10:13.793 : :Capitolo 17
01:12:20.294 : :Capitolo 18
01:19:32.476 : :Capitolo 19
01:22:56.138 : :Capitolo 20
01:27:28.452 : :Capitolo 21
01:34:59.652 : :Capitolo 22
01:37:12.368 : :Capitolo 23
01:41:25.538 : :Capitolo 24
01:49:23.265 : :Capitolo 25
01:53:58.290 : :Capitolo 26
01:58:05.245 : :Capitolo 27
02:01:37.832 : :Capitolo 28
02:05:58.926 : :Capitolo 29
02:14:33.899 : :Capitolo 30


Trackers List

Tracker Name
udp://tracker.torrent.eu.org:451/announce
udp://tracker.coppersurfer.tk:6969/announce
udp://tracker.pirateparty.gr:6969/announce
udp://tracker.leechers-paradise.org:6969/announce
udp://tracker.openbittorrent.com:6969/announce
udp://opentracker.i2p.rocks:6969/announce
udp://p4p.arenabg.com:1337/announce
udp://explodie.org:6969/announce
udp://tracker.opentrackr.org:1337/announce
udp://inferno.demonoid.is:3391/announce
udp://exodus.desync.com:6969/announce
udp://ipv4.tracker.harry.lu:80/announce
udp://open.stealth.si:80/announce
udp://9.rarbg.to:2710/announce
udp://tracker.zer0day.to:1337/announce

Torrent File Content

  • La.Papessa.2009.iTA.ENG.AC3.SUB.iTA.ENG.BluRay.1080p.x264.jeddak-MIRCrew.mkv (3.3 GB)


Latest Searches