One Crazy Summer.1986.1080P.Bluray.HEVC [Tornment666]


    Seeders : 11      Leechers : 2

Movie : One Crazy Summer
Downloads : 104
Language : English
Genres : Drama,Comedy,Romance,Family,
Release date : 1986
Summary : An aspiring teenage cartoonist and his friends come to the aid of a singer trying to save her family property from developers.




Description

https://www.imdb.com/title/tt0091680/

Code:



General

Format : MPEG-4
Format profile : Base Media / Version 2
Codec ID : mp42 (isom/iso2/mp41)
File size : 1.53 GiB
Duration : 1 h 33 min
Overall bit rate : 2 345 kb/s
Encoded date : UTC 2021-09-07 10:33:43
Tagged date : UTC 2021-09-07 10:33:43

Video

ID : 1
Format : HEVC
Format/Info : High Efficiency Video Coding
Format profile : [email protected]@Main
Codec ID : hvc1
Codec ID/Info : High Efficiency Video Coding
Duration : 1 h 33 min
Bit rate : 2 178 kb/s
Width : 1 920 pixels
Height : 1 038 pixels
Display aspect ratio : 1.85:1
Frame rate mode : Variable
Frame rate : 23.976 (24000/1001) FPS
Minimum frame rate : 23.974 FPS
Maximum frame rate : 23.981 FPS
Color space : YUV
Chroma subsampling : 4:2:0
Bit depth : 8 bits
Bits/(Pixel*Frame) : 0.046
Stream size : 1.42 GiB (93%)
Writing library : x265 3.2.1+1-b5c86a64bbbe:[Windows][GCC 9.2.0][64 bit] 8bit+10bit+12bit
Encoded date : UTC 2021-09-07 10:33:43
Tagged date : UTC 2021-09-07 10:33:43
Color range : Limited
Color primaries : BT.709
Transfer characteristics : BT.709
Matrix coefficients : BT.709
Codec configuration box : hvcC

Audio

ID : 2
Format : AAC LC
Format/Info : Advanced Audio Codec Low Complexity
Codec ID : mp4a-40-2
Duration : 1 h 33 min
Bit rate mode : Constant
Bit rate : 160 kb/s
Channel(s) : 2 channels
Channel layout : L R
Sampling rate : 48.0 kHz
Frame rate : 46.875 FPS (1024 SPF)
Compression mode : Lossy
Stream size : 107 MiB (7%)
Title : FLAC 2.0 @ 466 кбит / с
Language : English
Default : Yes
Alternate group : 1
Encoded date : UTC 2021-09-07 10:33:43
Tagged date : UTC 2021-09-07 10:33:43








Trackers List

Tracker Name
udp://tracker.opentrackr.org:1337
udp://tracker.leechers-paradise.org:6969/announce
udp://9.rarbg.to:2920/announce

Torrent File Content

One Crazy Summer.1986.1080P.Bluray.HEVC [Tornment666]
  • One Crazy Summer.1986.1080P.Bluray.HEVC [Tornment666].mp4 (1.5 GB)
  • Tornment666.pgp (3.1 KB)

Related torrents

Torrent Name Added Size Seed Leech
1 year ago 690.5 MB 16 10


Latest Searches