Lynch Mob - Wicked Sensation (1990) (PBTHAL LP 24-96) [FLAC] vtwin88cube


    Seeders : 0      Leechers : 0

Downloads : 4
Language : English




Description

Lynch Mob
Wicked Sensation (1990)
FLAC LOSSLESS 24bit-96kHz
PBTHAL Vinyl Rip


Not my rip. Any questions about the
eqipment used can be found in the
lineage text.


allmusic.com...

Had it been released a few years earlier, Lynch Mob's solid debut would have probably sold by the truckload. With the L.A. hard rock scene on the verge of annihilation at the hands of Seattle, however, 1990's Wicked Sensation went largely unnoticed. Capable singer Oni Logan quickly proves his mettle, complementing a veteran lineup featuring half of the '80s mainstay Dokken, in guitarist George Lynch and drummer Mick Brown. Lynch's guitar absolutely sizzles on the title track, and the gang chorus of "Sweet Sister Mercy" would have guaranteed a massive hit single in a different musical climate. Other standouts such as "River of Love," "Hell Child," and "Rain" find the band locking on to a powerful groove, and though it hardly breaks new ground, this remains a rather overlooked album.


foobar2000 1.4.3 / Dynamic Range Meter 1.1.1
log date: 2021-05-17 09:31:29

--------------------------------------------------------------------------------
Analyzed: Lynch Mob / Wicked Sensation
--------------------------------------------------------------------------------

DR Peak RMS Duration Track
--------------------------------------------------------------------------------
DR12 -1.67 dB -15.35 dB 4:41 01-Wicked Sensation
DR12 -3.34 dB -16.65 dB 4:22 02-River Of Love
DR13 -2.38 dB -18.25 dB 3:44 03-Sweet Sister Mercy
DR13 -1.02 dB -16.15 dB 5:04 04-All I Want
DR14 -1.64 dB -17.19 dB 4:51 05-Hell Child
DR13 -1.73 dB -17.74 dB 5:08 06-She's Evil But She's Mine
DR13 -2.39 dB -17.06 dB 3:47 07-Dance Of The Dogs
DR13 -2.14 dB -16.85 dB 4:53 08-Rain
DR12 -0.70 dB -14.46 dB 4:21 09-No Bed Of Roses
DR12 -2.54 dB -16.65 dB 5:16 10-Through These Eyes
DR12 -2.18 dB -16.21 dB 6:17 11-For A Million Years
DR13 -1.54 dB -16.33 dB 4:49 12-Street Fightin' Man

Number of tracks: 12
Official DR value: DR13

Samplerate: 96000 Hz
Channels: 2
Bits per sample: 24
Bitrate: 3179 kbps
Codec: FLAC




Support the artists...
buy it if you like it!

Sharing since 2010
Thanks for Seeding!
Cheers ;)
88


Trackers List

Tracker Name
udp://tracker.openbittorrent.com:80/announce
udp://exodus.desync.com:6969/announce
udp://denis.stalker.upeer.me:6969/announce
udp://tracker.torrent.eu.org:451/announce
udp://tracker.coppersurfer.tk:6969/announce
udp://tracker.internetwarriors.net:1337/announce
udp://explodie.org:6969/announce
udp://tracker.leechers-paradise.org:6969/announce
http://tracker.opentrackr.org:1337/announce

Torrent File Content

Lynch Mob - Wicked Sensation (1990) (PBTHAL LP 24-96) [FLAC] vtwin88cube
  • 00.-Lynch Mob - Wicked Sensation.m3u (0.3 KB)
  • 01.-Wicked Sensation.flac (109.1 MB)
  • 02.-River Of Love.flac (99.5 MB)
  • 03.-Sweet Sister Mercy.flac (84.3 MB)
  • 04.-All I Want.flac (117.0 MB)
  • 05.-Hell Child.flac (111.5 MB)
  • 06.-She's Evil But She's Mine.flac (117.6 MB)
  • 07.-Dance Of The Dogs.flac (86.9 MB)
  • 08.-Rain.flac (108.3 MB)
  • 09.-No Bed Of Roses.flac (104.0 MB)
  • 10.-Through These Eyes.flac (117.4 MB)
  • 11.-For A Million Years.flac (144.7 MB)
  • 12.-Street Fightin' Man.flac (109.5 MB)
  • DR13.txt (1.5 KB)
  • folder.jpg (60.1 KB)
  • lineage.txt (0.5 KB)


Latest Searches