Lucky Luke: Daisy Town (1971) BluRay 1080p DTS (FR+ES)


    Seeders : 0      Leechers : 6

Downloads : 23
Language : French
tag : animation,action,adventure,western,




Description



IMDB

Code:


General
Complete name : Lucky.Luke.Daisy.Town.(1971).BluRay.1080p.DTS.(FR+ES).[Borsalino].EN.srt
Format : SubRip
File size : 25.3 KiB

Text
Format : SubRip
Compression mode : Lossless

General
Complete name : Lucky.Luke.Daisy.Town.(1971).BluRay.1080p.DTS.(FR+ES).[Borsalino].FR.srt
Format : SubRip
File size : 39.2 KiB

Text
Format : SubRip
Compression mode : Lossless

General
Complete name : Lucky.Luke.Daisy.Town.(1971).BluRay.1080p.DTS.(FR+ES).[Borsalino].NL.srt
Format : SubRip
File size : 26.3 KiB

Text
Format : SubRip
Compression mode : Lossless

General
Complete name : Lucky.Luke.Daisy.Town.(1971).BluRay.1080p.DTS.(FR+ES).[Borsalino].RU.srt
Format : SubRip
File size : 44.4 KiB

Text
Format : SubRip
Compression mode : Lossless

General
Complete name : Lucky.Luke.Daisy.Town.(1971).BluRay.1080p.DTS.(FR+ES).[Borsalino].mkv
Format : Matroska
Format version : Version 4
File size : 12.6 GiB
Duration : 1 h 12 min
Overall bit rate mode : Variable
Overall bit rate : 24.9 Mb/s
Movie name : Lucky.Luke.Daisy.Town.(1971).BluRay.1080p.DTS.(FR+ES).[Borsalino]
Writing application : mkvmerge v56.1.0 ('My Friend') 64-bit
Writing library : libebml v1.4.2 + libmatroska v1.6.4

Video
ID : 1
Format : AVC
Format/Info : Advanced Video Codec
Format profile : [email protected]
Format settings : CABAC / 4 Ref Frames
Format settings, CABAC : Yes
Format settings, Reference frames : 4 frames
Codec ID : V_MPEG4/ISO/AVC
Duration : 1 h 12 min
Bit rate mode : Variable
Bit rate : 23.0 Mb/s
Maximum bit rate : 35.0 Mb/s
Width : 1 920 pixels
Height : 1 080 pixels
Display aspect ratio : 16:9
Frame rate mode : Constant
Frame rate : 25.000 FPS
Standard : PAL
Color space : YUV
Chroma subsampling : 4:2:0
Bit depth : 8 bits
Scan type : MBAFF
Scan type, store method : Interleaved fields
Scan order : Top Field First
Bits/(Pixel*Frame) : 0.444
Stream size : 11.6 GiB (92%)
Title : French
Language : French
Default : Yes
Forced : No
Color range : Limited
Color primaries : BT.709
Transfer characteristics : BT.709
Matrix coefficients : BT.709

Audio #1
ID : 2
Format : DTS XLL
Format/Info : Digital Theater Systems
Commercial name : DTS-HD Master Audio
Codec ID : A_DTS
Duration : 1 h 12 min
Bit rate mode : Variable
Bit rate : 989 kb/s
Channel(s) : 2 channels
Channel layout : L R
Sampling rate : 48.0 kHz
Frame rate : 93.750 FPS (512 SPF)
Bit depth : 16 bits
Compression mode : Lossless
Delay relative to video : 600 ms
Stream size : 512 MiB (4%)
Title : Spanish
Language : Spanish
Default : No
Forced : No

Audio #2
ID : 3
Format : DTS XLL
Format/Info : Digital Theater Systems
Commercial name : DTS-HD Master Audio
Codec ID : A_DTS
Duration : 1 h 12 min
Bit rate mode : Variable
Bit rate : 908 kb/s
Channel(s) : 2 channels
Channel layout : L R
Sampling rate : 48.0 kHz
Frame rate : 93.750 FPS (512 SPF)
Bit depth : 16 bits
Compression mode : Lossless
Stream size : 470 MiB (4%)
Title : French
Language : French
Default : Yes
Forced : No



Spoken language




Subtitles (srt files)














Trackers List

Tracker Name
udp://tracker.leechers-paradise.org:6969/announce
udp://tracker.coppersurfer.tk:6969/announce
udp://tracker.opentrackr.org:1337/announce
udp://tracker.zer0day.to:1337/announce
udp://eddie4.nl:6969/announce
udp://explodie.org:6969/announce
udp://9.rarbg.me:2780/announce
udp://9.rarbg.to:2730/announce
udp://9.rarbg.me:2890
udp://9.rarbg.to:2890
udp://open.stealth.si:80/announce
udp://tracker.tiny-vps.com:6969/announce
http://p4p.arenabg.ch:1337/announce
udp://46.4.109.148:6969/announce
udp://tracker.openbittorrent.com:80/announce

Torrent File Content

Lucky.Luke.Daisy.Town.(1971).BluRay.1080p.DTS.(FR+ES).[Borsalino]
  • Lucky.Luke.Daisy.Town.(1971).BluRay.1080p.DTS.(FR+ES).[Borsalino].EN.srt (25.3 KB)
  • Lucky.Luke.Daisy.Town.(1971).BluRay.1080p.DTS.(FR+ES).[Borsalino].FR.srt (39.2 KB)
  • Lucky.Luke.Daisy.Town.(1971).BluRay.1080p.DTS.(FR+ES).[Borsalino].mkv (12.6 GB)
  • Lucky.Luke.Daisy.Town.(1971).BluRay.1080p.DTS.(FR+ES).[Borsalino].NL.srt (26.3 KB)
  • Lucky.Luke.Daisy.Town.(1971).BluRay.1080p.DTS.(FR+ES).[Borsalino].RU.srt (44.4 KB)


Latest Searches