Le Casse (1971) BluRay 1080p AAC


    Seeders : 1      Leechers : 4

Movie : The Burglars
Downloads : 4
Language : French
tag : action,crime,thriller,
Genres : Action,Crime,
Release date : 1971
Summary : In Athens a collection of emeralds is successfully stolen by a team of robbers, led by safe-cracker Azad. Things go smoothly until they miss the ship by which they planned their escape; a police chief pursues Azad while he waits for the next ship to set off.




Description



IMDB

Code:


General
Complete name : Le.Casse.(1971).BluRay.1080p.AAC.[Borsalino].DE.srt
Format : SubRip
File size : 54.0 KiB

Text
Format : SubRip
Compression mode : Lossless

General
Complete name : Le.Casse.(1971).BluRay.1080p.AAC.[Borsalino].EN.srt
Format : SubRip
File size : 41.1 KiB

Text
Format : SubRip
Compression mode : Lossless

General
Complete name : Le.Casse.(1971).BluRay.1080p.AAC.[Borsalino].ES.srt
Format : SubRip
File size : 46.1 KiB

Text
Format : SubRip
Compression mode : Lossless

General
Complete name : Le.Casse.(1971).BluRay.1080p.AAC.[Borsalino].IT.srt
Format : SubRip
File size : 44.8 KiB

Text
Format : SubRip
Compression mode : Lossless

General
Complete name : Le.Casse.(1971).BluRay.1080p.AAC.[Borsalino].NL.srt
Format : SubRip
File size : 44.0 KiB

Text
Format : SubRip
Compression mode : Lossless

General
Complete name : Le.Casse.(1971).BluRay.1080p.AAC.[Borsalino].mkv
Format : Matroska
Format version : Version 4
File size : 2.24 GiB
Duration : 2 h 0 min
Overall bit rate : 2 663 kb/s
Movie name : Le.Casse.(1971).BluRay.1080p.AAC.[Borsalino]
Writing application : mkvmerge v56.1.0 ('My Friend') 64-bit
Writing library : libebml v1.4.2 + libmatroska v1.6.4

Video
ID : 1
Format : AVC
Format/Info : Advanced Video Codec
Format profile : [email protected]
Format settings : CABAC / 5 Ref Frames
Format settings, CABAC : Yes
Format settings, Reference frames : 5 frames
Codec ID : V_MPEG4/ISO/AVC
Duration : 2 h 0 min
Bit rate : 2 500 kb/s
Width : 1 920 pixels
Height : 818 pixels
Display aspect ratio : 2.35:1
Frame rate mode : Constant
Frame rate : 25.000 FPS
Color space : YUV
Chroma subsampling : 4:2:0
Bit depth : 8 bits
Scan type : Progressive
Bits/(Pixel*Frame) : 0.064
Stream size : 2.11 GiB (94%)
Title : French
Writing library : x264 core 148 r2708 86b7198
Encoding settings : cabac=1 / ref=5 / deblock=1:-2:-2 / analyse=0x3:0x113 / me=umh / subme=8 / psy=1 / psy_rd=1.00:0.25 / mixed_ref=1 / me_range=16 / chroma_me=1 / trellis=1 / 8x8dct=1 / cqm=0 / deadzone=6,6 / fast_pskip=1 / chroma_qp_offset=-4 / threads=18 / lookahead_threads=3 / sliced_threads=0 / nr=0 / decimate=0 / interlaced=0 / bluray_compat=0 / constrained_intra=0 / bframes=3 / b_pyramid=2 / b_adapt=2 / b_bias=0 / direct=3 / weightb=1 / open_gop=0 / weightp=2 / keyint=250 / keyint_min=25 / scenecut=40 / intra_refresh=0 / rc_lookahead=50 / rc=2pass / mbtree=1 / bitrate=2500 / ratetol=1.0 / qcomp=0.80 / qpmin=0 / qpmax=69 / qpstep=4 / cplxblur=20.0 / qblur=0.5 / ip_ratio=1.10 / aq=1:0.50
Language : French
Default : Yes
Forced : No
Color range : Limited
Color primaries : BT.709
Transfer characteristics : BT.709
Matrix coefficients : BT.709

Audio
ID : 2
Format : AAC LC
Format/Info : Advanced Audio Codec Low Complexity
Codec ID : A_AAC-2
Duration : 2 h 0 min
Bit rate : 160 kb/s
Channel(s) : 2 channels
Channel layout : L R
Sampling rate : 48.0 kHz
Frame rate : 46.875 FPS (1024 SPF)
Compression mode : Lossy
Delay relative to video : -21 ms
Stream size : 138 MiB (6%)
Title : French
Language : French
Default : Yes
Forced : No



Spoken language



Subtitles (srt files)

















Trackers List

Tracker Name
udp://tracker.leechers-paradise.org:6969/announce
udp://tracker.coppersurfer.tk:6969/announce
udp://tracker.opentrackr.org:1337/announce
udp://tracker.zer0day.to:1337/announce
udp://eddie4.nl:6969/announce
udp://explodie.org:6969/announce
udp://9.rarbg.me:2780/announce
udp://9.rarbg.to:2730/announce
udp://9.rarbg.me:2890
udp://9.rarbg.to:2890
udp://open.stealth.si:80/announce
udp://tracker.tiny-vps.com:6969/announce
http://p4p.arenabg.ch:1337/announce
udp://46.4.109.148:6969/announce
udp://tracker.openbittorrent.com:80/announce

Torrent File Content

Le.Casse.(1971).BluRay.1080p.AAC.[Borsalino]
  • Le.Casse.(1971).BluRay.1080p.AAC.[Borsalino].DE.srt (54.0 KB)
  • Le.Casse.(1971).BluRay.1080p.AAC.[Borsalino].EN.srt (41.1 KB)
  • Le.Casse.(1971).BluRay.1080p.AAC.[Borsalino].ES.srt (46.1 KB)
  • Le.Casse.(1971).BluRay.1080p.AAC.[Borsalino].IT.srt (44.8 KB)
  • Le.Casse.(1971).BluRay.1080p.AAC.[Borsalino].mkv (2.2 GB)
  • Le.Casse.(1971).BluRay.1080p.AAC.[Borsalino].NL.srt (44.0 KB)

Related torrents

Torrent Name Added Size Seed Leech
3 months ago 2.2 GB 4 2


Latest Searches