Le bossu (1959) Bluray 1080p AAC


    Seeders : 1      Leechers : 2

Movie : The Hunchback of Paris
Downloads : 3
Language : French
tag : action,adventure,
Genres : Adventure,History,
Release date : 1959
Summary : Duke Philippe de Nevers is an influential and popular man who is married to a beautiful wife called Aurore. His rival Philippe de Gonzague hates him enough to organise an attempt on him. The Duke is accompagnied by Henri de Lagardère when de Gonzague's henchmen altogether attack him. Lagardère cannot save his friend because the both of them are hopelessly outnumbered. He has to escape in order to save the Duke's daughter and swears revenge. Together with his old buddy Passepoil he raises the little girl in Spain. At the same time he returns frequently to France where he detects confronts his friend's murderers and puts them to the sword one by one until only their former leader is left. Finally he discovers that Philippe de Gonzague is the man for whom he is looking.




Description



IMDB

Code:


General
Complete name : Le.bossu.(1959).Bluray.1080p.AAC.[Borsalino].EL.srt
Format : SubRip
File size : 79.5 KiB

Text
Format : SubRip
Compression mode : Lossless

General
Complete name : Le.bossu.(1959).Bluray.1080p.AAC.[Borsalino].EN.srt
Format : SubRip
File size : 77.0 KiB

Text
Format : SubRip
Compression mode : Lossless

General
Complete name : Le.bossu.(1959).Bluray.1080p.AAC.[Borsalino].ES.srt
Format : SubRip
File size : 81.0 KiB

Text
Format : SubRip
Compression mode : Lossless

General
Complete name : Le.bossu.(1959).Bluray.1080p.AAC.[Borsalino].NL.srt
Format : SubRip
File size : 82.2 KiB

Text
Format : SubRip
Compression mode : Lossless

General
Complete name : Le.bossu.(1959).Bluray.1080p.AAC.[Borsalino].RO.srt
Format : SubRip
File size : 79.3 KiB

Text
Format : SubRip
Compression mode : Lossless

General
Complete name : Le.bossu.(1959).Bluray.1080p.AAC.[Borsalino].mkv
Format : Matroska
Format version : Version 4
File size : 2.28 GiB
Duration : 1 h 44 min
Overall bit rate : 3 113 kb/s
Movie name : Le.bossu.(1959).Bluray.1080p.AAC.[Borsalino]
Writing application : mkvmerge v56.1.0 ('My Friend') 64-bit
Writing library : libebml v1.4.2 + libmatroska v1.6.4

Video
ID : 1
Format : AVC
Format/Info : Advanced Video Codec
Format profile : [email protected]
Format settings : CABAC / 5 Ref Frames
Format settings, CABAC : Yes
Format settings, Reference frames : 5 frames
Codec ID : V_MPEG4/ISO/AVC
Duration : 1 h 44 min
Bit rate : 3 018 kb/s
Width : 1 920 pixels
Height : 816 pixels
Display aspect ratio : 2.35:1
Frame rate mode : Variable
Frame rate : 24.000 FPS
Color space : YUV
Chroma subsampling : 4:2:0
Bit depth : 8 bits
Scan type : Progressive
Bits/(Pixel*Frame) : 0.080
Stream size : 2.21 GiB (97%)
Title : French
Writing library : x264 core 142 r2479 dd79a61
Encoding settings : cabac=1 / ref=5 / deblock=1:-1:-1 / analyse=0x3:0x113 / me=umh / subme=8 / psy=1 / psy_rd=1.00:0.15 / mixed_ref=1 / me_range=16 / chroma_me=1 / trellis=1 / 8x8dct=1 / cqm=0 / deadzone=21,11 / fast_pskip=1 / chroma_qp_offset=-3 / threads=18 / lookahead_threads=3 / sliced_threads=0 / nr=0 / decimate=1 / interlaced=0 / bluray_compat=0 / constrained_intra=0 / bframes=3 / b_pyramid=2 / b_adapt=2 / b_bias=0 / direct=3 / weightb=1 / open_gop=0 / weightp=2 / keyint=240 / keyint_min=24 / scenecut=40 / intra_refresh=0 / rc_lookahead=50 / rc=crf / mbtree=1 / crf=24.0 / qcomp=0.60 / qpmin=0 / qpmax=69 / qpstep=4 / vbv_maxrate=62500 / vbv_bufsize=78125 / crf_max=0.0 / nal_hrd=none / filler=0 / ip_ratio=1.40 / aq=1:1.00
Language : French
Default : Yes
Forced : No
Color range : Limited
Color primaries : BT.709
Transfer characteristics : BT.709
Matrix coefficients : BT.709

Audio
ID : 2
Format : AAC LC
Format/Info : Advanced Audio Codec Low Complexity
Codec ID : A_AAC-2
Duration : 1 h 44 min
Bit rate : 80.3 kb/s
Channel(s) : 1 channel
Channel layout : C
Sampling rate : 48.0 kHz
Frame rate : 46.875 FPS (1024 SPF)
Compression mode : Lossy
Delay relative to video : -21 ms
Stream size : 60.2 MiB (3%)
Title : French
Language : French
Default : Yes
Forced : No

Text
ID : 3
Format : PGS
Muxing mode : zlib
Codec ID : S_HDMV/PGS
Codec ID/Info : Picture based subtitle format used on BDs/HD-DVDs
Duration : 1 h 44 min
Bit rate : 33.2 kb/s
Count of elements : 2908
Stream size : 24.9 MiB (1%)
Title : French
Language : French
Default : No
Forced : No



Spoken language



Subtitles (srt files)


















Trackers List

Tracker Name
udp://tracker.leechers-paradise.org:6969/announce
udp://tracker.coppersurfer.tk:6969/announce
udp://tracker.opentrackr.org:1337/announce
udp://tracker.zer0day.to:1337/announce
udp://eddie4.nl:6969/announce
udp://explodie.org:6969/announce
udp://9.rarbg.me:2780/announce
udp://9.rarbg.to:2730/announce
udp://9.rarbg.me:2890
udp://9.rarbg.to:2890
udp://open.stealth.si:80/announce
udp://tracker.tiny-vps.com:6969/announce
http://p4p.arenabg.ch:1337/announce
udp://46.4.109.148:6969/announce
udp://tracker.openbittorrent.com:80/announce

Torrent File Content

Le.bossu.(1959).Bluray.1080p.AAC.[Borsalino]
  • Le.bossu.(1959).Bluray.1080p.AAC.[Borsalino].EL.srt (79.5 KB)
  • Le.bossu.(1959).Bluray.1080p.AAC.[Borsalino].EN.srt (77.0 KB)
  • Le.bossu.(1959).Bluray.1080p.AAC.[Borsalino].ES.srt (81.0 KB)
  • Le.bossu.(1959).Bluray.1080p.AAC.[Borsalino].mkv (2.3 GB)
  • Le.bossu.(1959).Bluray.1080p.AAC.[Borsalino].NL.srt (82.2 KB)
  • Le.bossu.(1959).Bluray.1080p.AAC.[Borsalino].RO.srt (79.3 KB)


Latest Searches