L'as des as (1982) BluRay 720p AAC


    Seeders : 0      Leechers : 2

Movie : Ace of Aces
Downloads : 1
Language : French
tag : adventure,comedy,sport,war,
Genres : Adventure,Comedy,Sport,
Release date : 1982
Summary : In this action comedy the French boxer Jo Cavalier is charmed on the train to Berlin for the Olympics in Hitler's Germany by the little boy Simon Rosenblum who asks his autograph; when it turns out his adorable young fan is a Jewish orphan in danger of persecution, he risks his one shot at Olympic glory to save Simon and his family, helped only by a German officer-gentleman who became his friend in World War I, by an adventurous escape to Switzerland, Nazi troops on their heals and braving impossible odds in roller coaster-style.




Description



IMDB

Code:


General
Complete name : L'as.des.as.(1982).BluRay.720p.AAC.[Borsalino].DE.srt
Format : SubRip
File size : 72.8 KiB

Text
Format : SubRip
Compression mode : Lossless

General
Complete name : L'as.des.as.(1982).BluRay.720p.AAC.[Borsalino].EN.srt
Format : SubRip
File size : 48.1 KiB

Text
Format : SubRip
Compression mode : Lossless

General
Complete name : L'as.des.as.(1982).BluRay.720p.AAC.[Borsalino].NL.srt
Format : SubRip
File size : 47.1 KiB

Text
Format : SubRip
Compression mode : Lossless

General
Complete name : L'as.des.as.(1982).BluRay.720p.AAC.[Borsalino].mkv
Format : Matroska
Format version : Version 4
File size : 3.01 GiB
Duration : 1 h 43 min
Overall bit rate : 4 150 kb/s
Movie name : L'as.des.as.(1982).BluRay.720p.AAC.[Borsalino]
Writing application : mkvmerge v56.1.0 ('My Friend') 64-bit
Writing library : libebml v1.4.2 + libmatroska v1.6.4

Video
ID : 1
Format : AVC
Format/Info : Advanced Video Codec
Format profile : [email protected]
Format settings : CABAC / 4 Ref Frames
Format settings, CABAC : Yes
Format settings, Reference frames : 4 frames
Format settings, GOP : M=3, N=30
Muxing mode : Container [email protected]
Codec ID : V_MPEG4/ISO/AVC
Duration : 1 h 43 min
Bit rate : 3 956 kb/s
Width : 1 194 pixels
Height : 720 pixels
Display aspect ratio : 5:3
Frame rate mode : Constant
Frame rate : 24.000 FPS
Color space : YUV
Chroma subsampling : 4:2:0
Bit depth : 8 bits
Scan type : Progressive
Bits/(Pixel*Frame) : 0.192
Stream size : 2.87 GiB (95%)
Title : French
Language : French
Default : Yes
Forced : No

Audio
ID : 2
Format : AAC LC
Format/Info : Advanced Audio Codec Low Complexity
Codec ID : A_AAC-2
Duration : 1 h 43 min
Bit rate : 192 kb/s
Channel(s) : 2 channels
Channel layout : L R
Sampling rate : 48.0 kHz
Frame rate : 46.875 FPS (1024 SPF)
Compression mode : Lossy
Stream size : 143 MiB (5%)
Title : French
Language : French
Default : Yes
Forced : No



Spoken language



Subtitles (srt files)




















Trackers List

Tracker Name
udp://tracker.leechers-paradise.org:6969/announce
udp://tracker.coppersurfer.tk:6969/announce
udp://tracker.opentrackr.org:1337/announce
udp://tracker.zer0day.to:1337/announce
udp://eddie4.nl:6969/announce
udp://explodie.org:6969/announce
udp://9.rarbg.me:2780/announce
udp://9.rarbg.to:2730/announce
udp://9.rarbg.me:2890
udp://9.rarbg.to:2890
udp://open.stealth.si:80/announce
udp://tracker.tiny-vps.com:6969/announce
http://p4p.arenabg.ch:1337/announce
udp://46.4.109.148:6969/announce
udp://tracker.openbittorrent.com:80/announce

Torrent File Content

L'as.des.as.(1982).BluRay.720p.AAC.[Borsalino]
  • L'as.des.as.(1982).BluRay.720p.AAC.[Borsalino].DE.srt (72.8 KB)
  • L'as.des.as.(1982).BluRay.720p.AAC.[Borsalino].EN.srt (48.1 KB)
  • L'as.des.as.(1982).BluRay.720p.AAC.[Borsalino].mkv (3.0 GB)
  • L'as.des.as.(1982).BluRay.720p.AAC.[Borsalino].NL.srt (47.1 KB)

Related torrents

Torrent Name Added Size Seed Leech
3 months ago 3 GB 5 1
8 years ago 4.4 GB 1 0
8 years ago 5.5 GB 0 0


Latest Searches