L'alpagueur (1976) BluRay 1080p AAC


    Seeders : 1      Leechers : 4

Movie : Hunter Will Get You
Downloads : 2
Language : French
tag : action,crime,thriller,
Genres : Crime,Action,Thriller,
Release date : 1976
Summary : L'Alpagueur is a free-lance spy from the French secret agency. He's put on the investigation about L'epervier, a serial-killer who employs young boys to help him robbing banks before killing them.




Description



IMDB

Code:


General
Complete name : L'alpagueur.(1976).BluRay.1080p.AAC.[Borsalino].DE.srt
Format : SubRip
File size : 40.8 KiB

Text
Format : SubRip
Compression mode : Lossless

General
Complete name : L'alpagueur.(1976).BluRay.1080p.AAC.[Borsalino].EN.srt
Format : SubRip
File size : 34.6 KiB

Text
Format : SubRip
Compression mode : Lossless

General
Complete name : L'alpagueur.(1976).BluRay.1080p.AAC.[Borsalino].ES.srt
Format : SubRip
File size : 33.1 KiB

Text
Format : SubRip
Compression mode : Lossless

General
Complete name : L'alpagueur.(1976).BluRay.1080p.AAC.[Borsalino].FR.srt
Format : SubRip
File size : 37.2 KiB

Text
Format : SubRip
Compression mode : Lossless

General
Complete name : L'alpagueur.(1976).BluRay.1080p.AAC.[Borsalino].NL.srt
Format : SubRip
File size : 32.2 KiB

Text
Format : SubRip
Compression mode : Lossless

General
Complete name : L'alpagueur.(1976).BluRay.1080p.AAC.[Borsalino].mkv
Format : Matroska
Format version : Version 4
File size : 7.21 GiB
Duration : 1 h 40 min
Overall bit rate : 10.2 Mb/s
Movie name : L'alpagueur.(1976).BluRay.1080p.AAC.[Borsalino]
Writing application : mkvmerge v56.1.0 ('My Friend') 64-bit
Writing library : libebml v1.4.2 + libmatroska v1.6.4

Video
ID : 1
Format : AVC
Format/Info : Advanced Video Codec
Format profile : [email protected]
Format settings : CABAC / 4 Ref Frames
Format settings, CABAC : Yes
Format settings, Reference frames : 4 frames
Format settings, GOP : M=3, N=30
Muxing mode : Container [email protected]
Codec ID : V_MPEG4/ISO/AVC
Duration : 1 h 40 min
Bit rate : 10.1 Mb/s
Width : 1 920 pixels
Height : 1 080 pixels
Display aspect ratio : 16:9
Frame rate mode : Constant
Frame rate : 23.976 (24000/1001) FPS
Color space : YUV
Chroma subsampling : 4:2:0
Bit depth : 8 bits
Scan type : Progressive
Bits/(Pixel*Frame) : 0.202
Stream size : 7.07 GiB (98%)
Title : French
Language : French
Default : Yes
Forced : No

Audio
ID : 2
Format : AAC LC
Format/Info : Advanced Audio Codec Low Complexity
Codec ID : A_AAC-2
Duration : 1 h 40 min
Bit rate : 192 kb/s
Channel(s) : 2 channels
Channel layout : L R
Sampling rate : 48.0 kHz
Frame rate : 46.875 FPS (1024 SPF)
Compression mode : Lossy
Stream size : 138 MiB (2%)
Title : French
Language : French
Default : Yes
Forced : No



Spoken language



Subtitles (srt files)
















Trackers List

Tracker Name
udp://tracker.leechers-paradise.org:6969/announce
udp://tracker.coppersurfer.tk:6969/announce
udp://tracker.opentrackr.org:1337/announce
udp://tracker.zer0day.to:1337/announce
udp://eddie4.nl:6969/announce
udp://explodie.org:6969/announce
udp://9.rarbg.me:2780/announce
udp://9.rarbg.to:2730/announce
udp://9.rarbg.me:2890
udp://9.rarbg.to:2890
udp://open.stealth.si:80/announce
udp://tracker.tiny-vps.com:6969/announce
http://p4p.arenabg.ch:1337/announce
udp://46.4.109.148:6969/announce
udp://tracker.openbittorrent.com:80/announce

Torrent File Content

L'alpagueur.(1976).BluRay.1080p.AAC.[Borsalino]
  • L'alpagueur.(1976).BluRay.1080p.AAC.[Borsalino].DE.srt (40.8 KB)
  • L'alpagueur.(1976).BluRay.1080p.AAC.[Borsalino].EN.srt (34.6 KB)
  • L'alpagueur.(1976).BluRay.1080p.AAC.[Borsalino].ES.srt (33.1 KB)
  • L'alpagueur.(1976).BluRay.1080p.AAC.[Borsalino].FR.srt (37.2 KB)
  • L'alpagueur.(1976).BluRay.1080p.AAC.[Borsalino].mkv (7.2 GB)
  • L'alpagueur.(1976).BluRay.1080p.AAC.[Borsalino].NL.srt (32.2 KB)

Related torrents

Torrent Name Added Size Seed Leech
3 months ago 7.2 GB 4 1
3 years ago 8 GB 0 0


Latest Searches