Kin.Dread.2021.720p.WEB.H264-NAISU


    Seeders : 4      Leechers : 1

Movie : Kin Dread
Downloads : 54
Language : English
tag : MOVIE,RARBG,
Genres : Thriller,
Release date : 2021
Summary : An anti-social sound designer with retrograde amnesia discovers a string of murders in his building but when the carnage triggers memories of his mysterious past, he races to stop the killer before losing those he loves most.




Description

Screens... (click to enlarge):


Screenshots:

Kin.Dread.2021.720p.WEB.H264-NAISU

Mediainfo

Quote:

Video
ID : 1
Format : AVC
Format/Info : Advanced Video Codec
Format profile : [email protected]
Format settings : CABAC / 4 Ref Frames
Format settings, CABAC : Yes
Format settings, Reference frames : 4 frames
Codec ID : V_MPEG4/ISO/AVC
Duration : 1 h 34 min
Bit rate mode : Constant
Bit rate : 3 497 kb/s
Nominal bit rate : 6 000 kb/s
Width : 1 280 pixels
Height : 544 pixels
Display aspect ratio : 2.35:1
Original display aspect ratio : 2.35:1
Frame rate mode : Constant
Frame rate : 23.976 (24000/1001) FPS
Color space : YUV
Chroma subsampling : 4:2:0
Bit depth : 8 bits
Scan type : Progressive
Bits/(Pixel*Frame) : 0.209
Stream size : 2.30 GiB (92%)
Default : Yes
Forced : No
Color range : Limited
Color primaries : BT.709
Transfer characteristics : BT.709
Matrix coefficients : BT.709

Audio
ID : 2
Format : E-AC-3
Format/Info : Enhanced AC-3
Commercial name : Dolby Digital Plus
Codec ID : A_EAC3
Duration : 1 h 34 min
Bit rate mode : Constant
Bit rate : 224 kb/s
Channel(s) : 2 channels
Channel layout : L R
Sampling rate : 48.0 kHz
Frame rate : 31.250 FPS (1536 SPF)
Compression mode : Lossy
Stream size : 151 MiB (6%)
Language : English
Service kind : Complete Main
Default : Yes
Forced : No

Text
ID : 3
Format : UTF-8
Codec ID : S_TEXT/UTF8
Codec ID/Info : UTF-8 Plain Text
Title : English
Language : English
Default : No
Forced : No


Trackers List

Tracker Name
http://tracker.trackerfix.com:80/announce
udp://9.rarbg.me:2930/announce
udp://9.rarbg.to:2790/announce
udp://tracker.slowcheetah.org:14760/announce
udp://tracker.tallpenguin.org:15800/announce

Torrent File Content

Kin.Dread.2021.720p.WEB.H264-NAISU[rarbg]
  • RARBG.txt (0.0 KB)
  • RARBG_DO_NOT_MIRROR.exe (0.1 KB)
  • kin.dread.2021.720p.web.h264-naisu.mkv (2.5 GB)
  • kin.dread.2021.720p.web.h264-naisu.nfo (0.0 KB)

Related torrents

Torrent Name Added Size Seed Leech
13 days ago 796.7 MB 57 8
1 month ago 1.6 GB 22 6
13 days ago 6.2 GB 13 3
1 month ago 829 MB 9 4
13 days ago 6.2 GB 8 1


Latest Searches