Joe Satriani - Surfing With The Alien (1987) (PBTHAL LP 24-96) [FLAC] vtwin88cube


    Seeders : 7      Leechers : 34

Downloads : 13
Language : English




Description

Joe Satriani
Surfing With The Alien (1987)
FLAC LOSSLESS 24bit-96kHz
PBTHAL Vinyl Rip


Not my rip. Any questions about the
eqipment used can be found in the
lineage text.


allmusic.com...

Surfing with the Alien belongs to its era like Are You Experienced? belongs to its own -- perhaps it doesn't transcend its time the way the Jimi Hendrix Experience's 1967 debut does, but Joe Satriani's 1987 breakthrough can be seen as the gold standard for guitar playing of the mid- to late '80s, an album that captures everything that was good about the glory days of shred. Certainly, Satriani was unique among his peers in that his playing was so fluid that his technical skills never seemed like showboating -- something that was somewhat true of his 1986 debut, Not of This Earth, but on Surfing with the Alien he married this dexterity to a true sense of melodic songcraft, a gift that helped him be that rare thing: a guitar virtuoso who ordinary listeners enjoyed. Nowhere is this more true than on "Always with Me, Always with You," a genuine ballad -- not beefed up with muscular power chords but rather sighing gently with its melody -- but this knack was also evident on the ZZ Top homage "Satch Boogie" and the title track itself, both of which turned into rock radio hits. This melodic facility, plus his fondness for a good old-fashioned three-chord rock, separated Satriani from his shredding peers in 1987, many of whom were quite literally his students. But he was no throwback: he equaled his former students Steve Vai and Kirk Hammett in sweep picking and fretboard acrobatics and he had a sparkling, spacy quality to some of his songs -- particularly the closing stretch of the Middle Eastern-flavored "Lords of Karma," the twinkling "Midnight," and "Echo" -- that was thoroughly modern for 1987. The production of Surfing with the Alien is also thoroughly of its year -- stiff drumbeats, sparkling productions -- so much so that it can seem a bit like a relic from another era, but it's fine that it doesn't transcend its time: it captures the best of its era and is still impressive in that regard.


foobar2000 1.4.3 / Dynamic Range Meter 1.1.1
log date: 2021-05-17 16:33:14

--------------------------------------------------------------------------------
Analyzed: Joe Satriani / Surfing With The Alien
--------------------------------------------------------------------------------

DR Peak RMS Duration Track
--------------------------------------------------------------------------------
DR13 -1.57 dB -16.17 dB 4:26 01-Surfing With The Alien
DR13 -0.76 dB -16.05 dB 4:01 02-Ice 9
DR13 -2.55 dB -16.70 dB 5:16 03-Crushing Day
DR13 -3.73 dB -21.17 dB 3:23 04-Always With Me, Always With You
DR13 -0.70 dB -16.03 dB 3:15 05-Satch Boogie
DR12 -1.82 dB -15.44 dB 1:49 06-Hill Of The Skull
DR14 -0.70 dB -18.11 dB 3:29 07-Circles
DR13 -0.62 dB -15.65 dB 4:48 08-Lords Of Karma
DR12 -6.32 dB -23.36 dB 1:43 09-Midnight
DR13 -1.00 dB -17.08 dB 5:40 10-Echo


Number of tracks: 10
Official DR value: DR13

Samplerate: 96000 Hz
Channels: 2
Bits per sample: 24
Bitrate: 2981 kbps
Codec: FLAC




Support the artists...
buy it if you like it!

Sharing since 2010
Thanks for Seeding!
Cheers ;)
88


Trackers List

Tracker Name
udp://tracker.openbittorrent.com:80/announce
udp://exodus.desync.com:6969/announce
udp://denis.stalker.upeer.me:6969/announce
udp://tracker.torrent.eu.org:451/announce
udp://tracker.coppersurfer.tk:6969/announce
udp://tracker.internetwarriors.net:1337/announce
udp://explodie.org:6969/announce
udp://tracker.leechers-paradise.org:6969/announce
http://tracker.opentrackr.org:1337/announce

Torrent File Content

Joe Satriani - Surfing With The Alien (1987) (PBTHAL LP 24-96) [FLAC] vtwin88cube
  • 00.-Joe Satriani - Surfing With The Alien.m3u (0.2 KB)
  • 01.-Surfing With The Alien.flac (103.8 MB)
  • 02.-Ice 9.flac (95.2 MB)
  • 03.-Crushing Day.flac (129.0 MB)
  • 04.-Always With Me, Always With You.flac (71.0 MB)
  • 05.-Satch Boogie.flac (76.3 MB)
  • 06.-Hill Of The Skull.flac (40.7 MB)
  • 07.-Circles.flac (77.4 MB)
  • 08.-Lords Of Karma.flac (111.2 MB)
  • 09.-Midnight.flac (33.0 MB)
  • 10.-Echo.flac (120.8 MB)
  • DR13.txt (1.3 KB)
  • folder.jpg (68.2 KB)
  • lineageAiry.txt (0.1 KB)


Latest Searches