Jacques Tati's L'illusionniste (2010) BluRay 1080p AAC


    Seeders : 2      Leechers : 0

Downloads : 14
Language : French
tag : animation,drama,fantasy,




Description


Jacques Tati's L'illusionniste (2010) BluRay 1080p AAC



IMDB

Code:


General
Complete name : Jacques.Tati's.L'illusionniste.(2010).BluRay.1080p.AAC.[Borsalino].FR.srt
Format : SubRip
File size : 1.89 KiB

Text
Format : SubRip
Compression mode : Lossless

General
Complete name : Jacques.Tati's.L'illusionniste.(2010).BluRay.1080p.AAC.[Borsalino].mkv
Format : Matroska
Format version : Version 4
File size : 1.47 GiB
Duration : 1 h 19 min
Overall bit rate : 2 636 kb/s
Movie name : Jacques.Tati's.L'illusionniste.(2010).BluRay.1080p.AAC.[Borsalino]
Writing application : mkvmerge v61.0.0 ('So') 64-bit
Writing library : libebml v1.4.2 + libmatroska v1.6.4

Video
ID : 1
Format : AVC
Format/Info : Advanced Video Codec
Format profile : [email protected]
Format settings : CABAC / 4 Ref Frames
Format settings, CABAC : Yes
Format settings, Reference frames : 4 frames
Codec ID : V_MPEG4/ISO/AVC
Duration : 1 h 19 min
Bit rate : 2 250 kb/s
Width : 1 920 pixels
Height : 1 024 pixels
Display aspect ratio : 1.85:1
Frame rate mode : Constant
Frame rate : 23.976 (24000/1001) FPS
Color space : YUV
Chroma subsampling : 4:2:0
Bit depth : 8 bits
Scan type : Progressive
Bits/(Pixel*Frame) : 0.048
Stream size : 1.26 GiB (85%)
Title : French
Writing library : x264 core 159
Encoding settings : cabac=1 / ref=4 / deblock=1:-1:-1 / analyse=0x3:0x133 / me=umh / subme=9 / psy=1 / psy_rd=1.00:0.15 / mixed_ref=1 / me_range=24 / chroma_me=1 / trellis=2 / 8x8dct=1 / cqm=0 / deadzone=21,11 / fast_pskip=0 / chroma_qp_offset=-3 / threads=12 / lookahead_threads=1 / sliced_threads=0 / nr=0 / decimate=1 / interlaced=0 / bluray_compat=0 / constrained_intra=0 / bframes=3 / b_pyramid=2 / b_adapt=2 / b_bias=0 / direct=3 / weightb=1 / open_gop=0 / weightp=2 / keyint=250 / keyint_min=23 / scenecut=40 / intra_refresh=0 / rc_lookahead=60 / rc=2pass / mbtree=1 / bitrate=2250 / ratetol=1.0 / qcomp=0.60 / qpmin=0 / qpmax=69 / qpstep=4 / cplxblur=20.0 / qblur=0.5 / vbv_maxrate=31250 / vbv_bufsize=31250 / nal_hrd=none / filler=0 / ip_ratio=1.40 / aq=1:1.00
Language : French
Default : Yes
Forced : No

Audio
ID : 2
Format : AAC LC
Format/Info : Advanced Audio Codec Low Complexity
Codec ID : A_AAC-2
Duration : 1 h 19 min
Bit rate : 384 kb/s
Channel(s) : 6 channels
Channel layout : C L R Ls Rs LFE
Sampling rate : 48.0 kHz
Frame rate : 46.875 FPS (1024 SPF)
Compression mode : Lossy
Delay relative to video : -43 ms
Stream size : 219 MiB (15%)
Title : French
Language : French
Default : Yes
Forced : No

General
Complete name : Jacques.Tati's.L'illusionniste.(2010).BluRay.1080p.AAC.[Borsalino].NL.srt
Format : SubRip
File size : 3.24 KiB

Text
Format : SubRip
Compression mode : Lossless

General
Complete name : Jacques.Tati's.L'illusionniste.(2010).BluRay.1080p.AAC.[Borsalino].EL.srt
Format : SubRip
File size : 4.93 KiB

Text
Format : SubRip
Compression mode : Lossless

General
Complete name : Jacques.Tati's.L'illusionniste.(2010).BluRay.1080p.AAC.[Borsalino].ES.srt
Format : SubRip
File size : 5.69 KiB

Text
Format : SubRip
Compression mode : Lossless



Spoken language



Subtitles (srt files)














Trackers List

Tracker Name
udp://tracker.leechers-paradise.org:6969/announce
udp://tracker.coppersurfer.tk:6969/announce
udp://tracker.opentrackr.org:1337/announce
udp://tracker.zer0day.to:1337/announce
udp://eddie4.nl:6969/announce
udp://explodie.org:6969/announce
udp://9.rarbg.me:2780/announce
udp://9.rarbg.to:2730/announce
udp://9.rarbg.me:2890
udp://9.rarbg.to:2890
udp://open.stealth.si:80/announce
udp://tracker.tiny-vps.com:6969/announce
http://p4p.arenabg.ch:1337/announce
udp://46.4.109.148:6969/announce
udp://tracker.openbittorrent.com:80/announce

Torrent File Content

Jacques.Tati's.L'illusionniste.(2010).BluRay.1080p.AAC.[Borsalino]
  • Jacques.Tati's.L'illusionniste.(2010).BluRay.1080p.AAC.[Borsalino].EL.srt (4.9 KB)
  • Jacques.Tati's.L'illusionniste.(2010).BluRay.1080p.AAC.[Borsalino].ES.srt (5.7 KB)
  • Jacques.Tati's.L'illusionniste.(2010).BluRay.1080p.AAC.[Borsalino].FR.srt (1.9 KB)
  • Jacques.Tati's.L'illusionniste.(2010).BluRay.1080p.AAC.[Borsalino].mkv (1.5 GB)
  • Jacques.Tati's.L'illusionniste.(2010).BluRay.1080p.AAC.[Borsalino].NL.srt (3.2 KB)


Latest Searches