HELMET (2021) Hindi 720p Zee5 WEB-DL x264 AAC2.0 ESub 800MB [Themoviesboss]


    Seeders : 428      Leechers : 70

Movie : Helmet
Downloads : 27013
Language : Hindi
tag : HELMET,2021,Hindi,720p,Zee5,WEB-DL,HDWebMovies,
Genres : Comedy,Drama,
Release date : 2021
Summary : Desperate to make some quick money, Lucky and his friends rob an e-commerce company truck. But to their surprise, the looted boxes contain condoms instead of electronic gadgets. They decide to sell them directly to the people, who want the product but are too embarrassed to buy it publicly.




Description


Encoded by                               : Harley Quinn




Movie name :


IHELMET (2021) Hindi 720p Zee5 WEB-DL x264 ESub 800MB [Themoviesboss]


General
Format : Matroska
Format version : Version 4
File size : 826 MiB
Duration : 1 h 44 min
Overall bit rate mode : Variable
Overall bit rate : 1 105 kb/s
Encoded date : UTC 2021-09-02 18:31:38
Writing application : mkvmerge v60.0.0 ('Are We Copies?') 64-bit
Writing library : libebml v1.4.2 + libmatroska v1.6.4

Video
ID : 1
Format : AVC
Format/Info : Advanced Video Codec
Format profile : [email protected]
Format settings : CABAC / 4 Ref Frames
Format settings, CABAC : Yes
Format settings, Reference frames : 4 frames
Format settings, GOP : M=4, N=50
Codec ID : V_MPEG4/ISO/AVC
Duration : 1 h 44 min
Bit rate mode : Variable
Bit rate : 1 038 kb/s
Maximum bit rate : 2 700 kb/s
Width : 1 280 pixels
Height : 534 pixels
Display aspect ratio : 2.40:1
Frame rate mode : Constant
Frame rate : 25.000 FPS
Standard : PAL
Color space : YUV
Chroma subsampling : 4:2:0
Bit depth : 8 bits
Scan type : Progressive
Bits/(Pixel*Frame) : 0.061
Stream size : 776 MiB (94%)
Default : Yes
Forced : No
Color range : Limited
Color primaries : BT.709
Transfer characteristics : BT.709
Matrix coefficients : BT.709

Audio
ID : 2
Format : AAC LC
Format/Info : Advanced Audio Codec Low Complexity
Codec ID : A_AAC-2
Duration : 1 h 44 min
Bit rate : 64.0 kb/s
Channel(s) : 2 channels
Channel layout : L R
Sampling rate : 48.0 kHz
Frame rate : 46.875 FPS (1024 SPF)
Compression mode : Lossy
Stream size : 47.8 MiB (6%)
Language : Hindi
Default : Yes
Forced : No

Text
ID : 3
Format : UTF-8
Codec ID : S_TEXT/UTF8
Codec ID/Info : UTF-8 Plain Text
Duration : 1 h 39 min
Bit rate : 87 b/s
Count of elements : 2096
Stream size : 63.5 KiB (0%)
Language : English
Default : No
Forced : No




                                     











Trackers List

Tracker Name
udp://tracker.nyaa.uk:6969/announce
udp://tracker.coppersurfer.tk:6969/announce
udp://tracker.opentrackr.org:1337/announce
udp://9.rarbg.com:2910/announce
udp://p4p.arenabg.com:1337/announce
udp://tracker.pirateparty.gr:6969/announce
udp://exodus.desync.com:6969/announce
udp://tracker.torrent.eu.org:451/announce
udp://tracker.tiny-vps.com:6969/announce
http://pow7.com:80/announce
udp://9.rarbg.to:2740/announce
udp://open.stealth.si:80/announce
udp://tracker.leechers-paradise.org:6969/announce
http://t.nyaatracker.com:80/announce
udp://tracker.trackerfix.com:85/announce

Torrent File Content

  • HELMET (2021) Hindi 720p Zee5 WEB-DL x264 AAC2.0 ESub 800MB [Themoviesboss].mkv (826.0 MB)

Related torrents

Torrent Name Added Size Seed Leech
18 days ago 1.3 GB 214 38
19 days ago 826 MB 65 25
17 days ago 746.4 MB 51 6
18 days ago 745.5 MB 18 4
19 days ago 879.9 MB 6 1


Latest Searches