Great British Railway Journeys S12E06 Saxmundham to Dedham (1280x720p HD, 50fps, soft Eng subs)


    Seeders : 11      Leechers : 2

Downloads : 10
Language : English




Description

Great British Railway Journeys S12E06 Saxmundham to Dedham (1280x720p HD, 50fps, soft Eng subs)

Armed with his 1930s Bradshaw's guide, Michael Portillo explores East Anglia between the wars. His railway journey begins at Sutton Hoo in Suffolk, where archaeologists made a staggering discovery. Laura Howarth from the National Trust walks Michael to the top of a mound in a field, where in 1939 a 27-metre-long Anglo-Saxon ship was found buried in the earth. Buried along with the ship were precious objects from across the world. / / At Leiston, Michael visits the oldest children's democracy in the world, Summerhill School, founded in 1921 by a forward-thinking Scottish educator called A.S. Neill. Today, his daughter Zoe Readhead is school principal, and she introduces Michael to the school's ethos and some of its pupils. / / In the Essex village of Dedham, Michael unearths a nasty brush between painters. East Anglian art experts explain the antipathy between traditional artist Sir Alfred Munnings and the modern art school established in the village by Cedric Morris. / / Michael takes the harbour ferry from Felixstowe to Harwich to find out about the young Jewish passengers who arrived in Harwich in 1938, having fled Nazi Germany as part of the Kindertransport. Siblings Ruth Jacobs and Harry Heber, now in their 80s, were among them, and Michael is moved to hear their story.

First broadcast: 3 May 2021
Duration: 30 minutes

Torrent dead? Request reseed at torrentgalaxy.org - or ask at elsonroa at tutanota.com

Media info:-
General
Format : MPEG-4
Format profile : Base Media
Codec ID : isom (isom/iso2/avc1/mp41)
File size : 1.06 GiB
Duration : 29mn 29s
Overall bit rate mode : Variable
Overall bit rate : 5 127 Kbps

Video
ID : 1
Format : AVC
Format/Info : Advanced Video Codec
Format profile : [email protected]
Format settings, CABAC : Yes
Format settings, ReFrames : 4 frames
Codec ID : avc1
Codec ID/Info : Advanced Video Coding
Duration : 29mn 29s
Bit rate : 4 991 Kbps
Width : 1 280 pixels
Height : 720 pixels
Display aspect ratio : 16:9
Frame rate mode : Constant
Frame rate : 50.000 fps
Color space : YUV
Chroma subsampling : 4:2:0
Bit depth : 8 bits
Scan type : Progressive
Bits/(Pixel*Frame) : 0.108
Stream size : 1.03 GiB (97%)
Encoded date : UTC 1904-01-01 00:00:00
Tagged date : UTC 1904-01-01 00:00:00
Color range : Limited
Color primaries : BT.709
Transfer characteristics : BT.709
Matrix coefficients : BT.709

Audio
ID : 2
Format : AAC
Format/Info : Advanced Audio Codec
Format profile : LC
Codec ID : 40
Duration : 29mn 29s
Bit rate mode : Variable
Bit rate : 128 Kbps
Maximum bit rate : 150 Kbps
Channel(s) : 2 channels
Channel positions : Front: L R
Sampling rate : 48.0 KHz
Frame rate : 46.875 fps (1024 spf)
Compression mode : Lossy
Stream size : 27.0 MiB (2%)


Trackers List

Tracker Name
udp://tracker.tiny-vps.com:6969/announce
udp://fasttracker.foreverpirates.co:6969/announce
udp://tracker.opentrackr.org:1337/announce
udp://explodie.org:6969/announce
udp://open.stealth.si:80/announce
udp://tracker.cyberia.is:6969/announce
udp://ipv4.tracker.harry.lu:80/announce
udp://tracker.uw0.xyz:6969/announce
udp://tracker.dler.org:6969/announce
udp://9.rarbg.to:2710/announce

Torrent File Content

Great British Railway Journeys S12E06 Saxmundham to Dedham
  • About this torrent.txt (0.0 KB)
  • Downloaded from Demonoid - www.dnoid.is.txt (0.1 KB)
  • Great British Railway Journeys S12E06 Saxmundham to Dedham.jpg (1.2 MB)
  • Great British Railway Journeys S12E06 Saxmundham to Dedham.mp4 (1.1 GB)
  • Great British Railway Journeys S12E06 Saxmundham to Dedham.srt (58.6 KB)
  • If this torrent is dead.txt (0.1 KB)
  • Torrent Downloaded From 1337x.to.txt (0.0 KB)


Latest Searches