Friends.The.Reunion.2021.720p.HMAX.WEBRip.DD5.1.x264-MRCS


    Seeders : 1784      Leechers : 224

Movie : Friends: The Reunion
Downloads : 18821
Language : English
Genres : Comedy,Documentary,TV Movie,
Release date : 2021
Summary : An unscripted reunion special with the original cast of the hit NBC sitcom "Friends."




Description




Code:

MediaInfo «
Video
ID : 1
Format : AVC
Format/Info : Advanced Video Codec
Format profile : [email protected]
Format settings : CABAC / 4 Ref Frames
Format settings, CABAC : Yes
Format settings, Reference frames : 4 frames
Codec ID : V_MPEG4/ISO/AVC
Duration : 1 h 43 min
Bit rate mode : Variable
Bit rate : 3 400 kb/s
Maximum bit rate : 5 100 kb/s
Width : 1 280 pixels
Height : 720 pixels
Display aspect ratio : 16:9
Frame rate mode : Constant
Frame rate : 29.970 (30000/1001) FPS
Color space : YUV
Chroma subsampling : 4:2:0
Bit depth : 8 bits
Scan type : Progressive
Bits/(Pixel*Frame) : 0.123
Stream size : 2.41 GiB (88%)
Writing library : x264 core 157 r2965 861cec4
Encoding settings : cabac=1 / ref=4 / deblock=1:0:0 / analyse=0x1:0x111 / me=hex / subme=7 / psy=1 / psy_rd=1.00:0.00 / mixed_ref=1 / me_range=16 / chroma_me=1 / trellis=1 / 8x8dct=0 / cqm=0 / deadzone=21,11 / fast_pskip=1 / chroma_qp_offset=-2 / threads=22 / lookahead_threads=3 / sliced_threads=0 / nr=0 / decimate=1 / interlaced=0 / bluray_compat=0 / constrained_intra=0 / bframes=3 / b_pyramid=2 / b_adapt=1 / b_bias=0 / direct=1 / weightb=1 / open_gop=0 / weightp=2 / keyint=120 / keyint_min=120 / scenecut=40 / intra_refresh=0 / rc_lookahead=40 / rc=2pass / mbtree=1 / bitrate=3400 / ratetol=1.0 / qcomp=0.60 / qpmin=0 / qpmax=69 / qpstep=4 / cplxblur=20.0 / qblur=0.5 / vbv_maxrate=5100 / vbv_bufsize=2550 / nal_hrd=vbr / filler=0 / ip_ratio=1.40 / aq=1:1.00
Default : Yes
Forced : No
Color range : Limited
Color primaries : BT.709
Transfer characteristics : BT.709
Matrix coefficients : BT.709

Audio
ID : 2
Format : AC-3
Format/Info : Audio Coding 3
Commercial name : Dolby Digital
Codec ID : A_AC3
Duration : 1 h 43 min
Bit rate mode : Constant
Bit rate : 384 kb/s
Channel(s) : 6 channels
Channel layout : L R C LFE Ls Rs
Sampling rate : 48.0 kHz
Frame rate : 31.250 FPS (1536 SPF)
Compression mode : Lossy
Stream size : 285 MiB (10%)
Language : English
Service kind : Complete Main
Default : Yes
Forced : No

Text
ID : 3
Format : UTF-8
Codec ID : S_TEXT/UTF8
Codec ID/Info : UTF-8 Plain Text
Title : English
Language : English
Default : No
Forced : No





Trackers List

Tracker Name
http://tracker.trackerfix.com:80/announce
udp://9.rarbg.me:2790/announce
udp://9.rarbg.to:2770/announce
udp://tracker.slowcheetah.org:14790/announce
udp://tracker.tallpenguin.org:15740/announce

Torrent File Content

Friends.The.Reunion.2021.720p.HMAX.WEBRip.DD5.1.x264-MRCS
  • Friends.The.Reunion.2021.720p.HMAX.WEB-DL.DD5.1.x264-MRCS.mkv (2.7 GB)
  • RARBG.txt (0.0 KB)

Related torrents

Torrent Name Added Size Seed Leech
1 month ago 6.2 GB 5756 641
1 month ago 2 GB 4637 599
1 month ago 6.2 GB 2065 716
1 month ago 797.8 MB 1523 193
1 month ago 1.4 GB 242 134


Latest Searches