Escape.Room.Tournament.of.Champions.2021.1080p.WEBRip.DD5.1.x264-CM


    Seeders : 3133      Leechers : 572

Movie : Escape Room: Tournament of Champion...
Downloads : 6550
Language : English
tag : MOVIE,RARBG,
Genres : Horror,Thriller,Mystery,Action,Science Fiction,
Release date : 2021
Summary : Six people unwittingly find themselves locked in another series of escape rooms, slowly uncovering what they have in common to survive as they discover all the games that they've played before.




Description

Screens... (click to enlarge):








Infolink -> https://www.imdb.com/title/tt9844522/

Mediainfo

Quote:

Video
ID : 1
Format : AVC
Format/Info : Advanced Video Codec
Format profile : [email protected]
Format settings : CABAC / 5 Ref Frames
Format settings, CABAC : Yes
Format settings, Reference frames : 5 frames
Codec ID : V_MPEG4/ISO/AVC
Duration : 1 h 35 min
Bit rate : 6 568 kb/s
Width : 1 920 pixels
Height : 800 pixels
Display aspect ratio : 2.40:1
Frame rate mode : Constant
Frame rate : 23.976 (24000/1001) FPS
Color space : YUV
Chroma subsampling : 4:2:0
Bit depth : 8 bits
Scan type : Progressive
Bits/(Pixel*Frame) : 0.178
Stream size : 4.39 GiB (94%)
Default : Yes
Forced : No
Color range : Limited
Color primaries : BT.709
Transfer characteristics : BT.709
Matrix coefficients : BT.709

Audio
ID : 2
Format : AC-3
Format/Info : Audio Coding 3
Commercial name : Dolby Digital
Codec ID : A_AC3
Duration : 1 h 35 min
Bit rate mode : Constant
Bit rate : 384 kb/s
Channel(s) : 6 channels
Channel layout : L R C LFE Ls Rs
Sampling rate : 48.0 kHz
Frame rate : 31.250 FPS (1536 SPF)
Compression mode : Lossy
Stream size : 263 MiB (6%)
Title : English
Language : English
Service kind : Complete Main
Default : No
Forced : No

Text #1
ID : 3
Format : UTF-8
Codec ID : S_TEXT/UTF8
Codec ID/Info : UTF-8 Plain Text
Duration : 1 h 28 min
Bit rate : 65 b/s
Count of elements : 1330
Stream size : 42.6 KiB (0%)
Title : English [SDH]
Language : English
Default : No
Forced : No

Text #2
ID : 4
Format : UTF-8
Codec ID : S_TEXT/UTF8
Codec ID/Info : UTF-8 Plain Text
Duration : 1 h 34 min
Bit rate : 50 b/s
Count of elements : 1288
Stream size : 35.2 KiB (0%)
Title : French
Language : French
Default : No
Forced : No


Trackers List

Tracker Name
http://tracker.trackerfix.com:80/announce
udp://9.rarbg.me:2870/announce
udp://9.rarbg.to:2850/announce
udp://tracker.thinelephant.org:12740/announce
udp://tracker.fatkhoala.org:13790/announce

Torrent File Content

Escape.Room.Tournament.of.Champions.2021.1080p.WEBRip.DD5.1.x264-CM
  • Escape.Room.Tournament.of.Champions.2021.1080p.WEB-DL.DD5.1.H.264-CM.mkv (4.6 GB)
  • RARBG.txt (0.0 KB)

Related torrents

Torrent Name Added Size Seed Leech
15 days ago 796.7 MB 1288 189
15 days ago 1.4 GB 629 104
7 hours ago 1.4 GB 167 23
14 days ago 732.7 MB 162 33
15 days ago 4.6 GB 154 44


Latest Searches