Dragon Quest Your Story (2019) 1080p h264 Ac3 5.1 Ita Eng Sub Ita Eng - MIRCrew


    Seeders : 21      Leechers : 2

Downloads : 109
Language : English




Description

Dragon Quest Your Story (2019) 1080p h264 Ac3 5.1 Ita Eng Sub Ita Eng - MIRCrew





NO FOUND ONLY ORIGINAL RELEASE

My release is always in double track audio italian and Original audio
for select it use VLC or dvd player home
not use wmp

Dragon Quest Your Story (2019)

Quality MIRCrew in HD 1080p da 2,5 gb









Titolo originale ドラゴンクエスト ユア・ストーリー
Doragon Kuesuto Yua Sutōrī
Lingua originale giapponese
Paese di produzione Giappone
Anno 2019
Durata 103 min
Genere animazione, fantastico, avventura
Regia Takashi Yamazaki
Sceneggiatura Takashi Yamazaki
Produttore Shirogumi
Casa di produzione Robot Communications
Musiche Koichi Sugiyama



Emma Watson: Belle
Dan Stevens: Principe / Bestia
Luke Evans: Gaston
Kevin Kline: Maurice
Josh Gad: Le Tont
Ewan McGregor: Lumière
Stanley Tucci: Maestro Cadenza
Ian McKellen: Henry Tockins
Emma Thompson: Mrs. Bric
Audra McDonald: Madame Guardaroba
Gugu Mbatha-Raw: Spolverina
Nathan Mack: Chicco
Hattie Morahan: Agata
Gerard Horan: Monsieur Jean Bric
Thomas Padden: Chapeau



Mada, moglie del Re di Gotha Pankraz e madre di Luca, viene rapita dai mostri servi del malvagio Ladja quando il figlio era ancora un bambino.

Obiettivo di Ladja è aprire i cancelli di Nadiria, il Mondo degli Inferi, per liberare il Gran Maestro Nimzo, demone potentissimo che vi è imprigionato e per far ciò ha bisogno dei poteri di uno Zenithiano, razza celestiale il cui sangue scorre nelle vene di Mada, la quale si rifiuta di collaborare e pronunciare la formula necessaria.



I have not my self played Dragon Quest V, but as an avid gamer for over three decades, this movie still gave me a lot of good vibes and took me back to some old memories! The visuals are stunning and only based on that, I would recommend this! It does however fall short in some areas. It feels a little "forced" at times, and the potential is more than what the end product shows. All in all it was a pleasure to watch, and even though it is nothing revolutionary, it is a good-feel story with stunning graphics!



















[spoiler]
General

Complete name : Dragon Quest Your Story (2019) 1080p h264 Ac3 5.1 Ita Eng Sub Ita Eng - MIRCrew.mkv
Format : Matroska
Format version : Version 2
File size : 2.51 GiB
Duration : 1h 42mn
Overall bit rate : 3 503 Kbps
Movie name : MIRCrew
Encoded date : UTC 2021-04-30T07:51:42Z
Writing application : mkvmerge v5.4.0 ('Piper') built on Mar 10 2012 13:34:39
Writing library : Lavf55.12.0

Video
ID : 1
Format : AVC
Format/Info : Advanced Video Codec
Format profile : [email protected]
Format settings, CABAC : Yes
Format settings, ReFrames : 4 frames
Codec ID : V_MPEG4/ISO/AVC
Duration : 1h 42mn
Bit rate : 2 600 Kbps
Width : 1 920 pixels
Height : 800 pixels
Display aspect ratio : 2.40:1
Frame rate : 23.976 fps
Color space : YUV
Chroma subsampling : 4:2:0
Bit depth : 8 bits
Scan type : Progressive
Bits/(Pixel*Frame) : 0.071
Stream size : 1.82 GiB (72%)
Title : MIRCrew
Writing library : x264 core 142 r2479 dd79a61
Encoding settings : cabac=1 / ref=3 / deblock=1:0:0 /
Language : Italian
Default : Yes
Forced : No
Color primaries : BT.709-5, BT.1361, IEC 61966-2-4, SMPTE RP177
Transfer characteristics : BT.709-5, BT.1361
Matrix coefficients : BT.709-5, BT.1361, IEC 61966-2-4 709, SMPTE RP177

Audio #1
ID : 2
Format : AC-3
Format/Info : Audio Coding 3
Mode extension : CM (complete main)
Codec ID : A_AC3
Duration : 1h 42mn
Bit rate mode : Constant
Bit rate : 448 Kbps
Channel(s) : 6 channels
Channel positions : Front: L C R, Side: L R, LFE
Sampling rate : 48.0 KHz
Bit depth : 16 bits
Compression mode : Lossy
Delay relative to video : -5ms
Stream size : 328 MiB (13%)
Title : Ita Ac3 5.1
Language : Italian
Default : Yes
Forced : No

Audio #2
ID : 3
Format : AC-3
Format/Info : Audio Coding 3
Mode extension : CM (complete main)
Codec ID : A_AC3
Duration : 1h 42mn
Bit rate mode : Constant
Bit rate : 448 Kbps
Channel(s) : 6 channels
Channel positions : Front: L C R, Side: L R, LFE
Sampling rate : 48.0 KHz
Bit depth : 16 bits
Compression mode : Lossy
Delay relative to video : -5ms
Stream size : 328 MiB (13%)
Title : Eng Ac3 5.1
Language : English
Default : No
Forced : No

Text #1
ID : 4
Format : ASS
Codec ID : S_TEXT/ASS
Codec ID/Info : Advanced Sub Station Alpha
Compression mode : Lossless
Language : German
Default : No
Forced : No

Text #2
ID : 5
Format : ASS
Codec ID : S_TEXT/ASS
Codec ID/Info : Advanced Sub Station Alpha
Compression mode : Lossless
Language : German
Default : No
Forced : No

Text #3
ID : 6
Format : ASS
Codec ID : S_TEXT/ASS
Codec ID/Info : Advanced Sub Station Alpha
Compression mode : Lossless
Language : English
Default : No
Forced : No

Text #4
ID : 7
Format : ASS
Codec ID : S_TEXT/ASS
Codec ID/Info : Advanced Sub Station Alpha
Compression mode : Lossless
Language : English
Default : No
Forced : No

Text #5
ID : 8
Format : ASS
Codec ID : S_TEXT/ASS
Codec ID/Info : Advanced Sub Station Alpha
Compression mode : Lossless
Language : French
Default : No
Forced : No

Text #6
ID : 9
Format : ASS
Codec ID : S_TEXT/ASS
Codec ID/Info : Advanced Sub Station Alpha
Compression mode : Lossless
Language : French
Default : No
Forced : No

Text #7
ID : 10
Format : ASS
Codec ID : S_TEXT/ASS
Codec ID/Info : Advanced Sub Station Alpha
Compression mode : Lossless
Language : Italian
Default : No
Forced : No

Text #8
ID : 11
Format : ASS
Codec ID : S_TEXT/ASS
Codec ID/Info : Advanced Sub Station Alpha
Compression mode : Lossless
Language : Italian
Default : No
Forced : No

Text #9
ID : 12
Format : VobSub
Muxing mode : zlib
Codec ID : S_VOBSUB
Codec ID/Info : The same subtitle format used on DVDs
Language : Japanese
Default : No
Forced : No




[/spoiler]






Trackers List

Tracker Name
udp://tracker.torrent.eu.org:451/announce
udp://tracker.coppersurfer.tk:6969/announce
udp://tracker.pirateparty.gr:6969/announce
udp://tracker.leechers-paradise.org:6969/announce
udp://tracker.cyberia.is:6969/announce
udp://tracker.iamhansen.xyz:2000/announce
udp://p4p.arenabg.com:1337/announce
udp://explodie.org:6969/announce
udp://tracker.opentrackr.org:1337/announce
udp://tracker.tiny-vps.com:6969/announce
udp://exodus.desync.com:6969/announce
udp://ipv4.tracker.harry.lu:80/announce
udp://open.stealth.si:80/announce
udp://9.rarbg.to:2710/announce

Torrent File Content

  • Dragon Quest Your Story (2019) 1080p h264 Ac3 5.1 Ita Eng Sub Ita Eng - MIRCrew.mkv (2.5 GB)


Latest Searches