Dont.Breathe.2016.BRRip.XviD.B4ND1T69


    Seeders : 17      Leechers : 0

Downloads : 91
Language : English
tag : Crime,Horror,Thriller,




Description

Dont.Breathe.2016.BRRip.XviD.B4ND1T69



Director: Fede Alvarez
Writers: Fede AlvarezRodo Sayagues
Stars: Stephen Lang, Jane Levy, Dylan Minnette

Plot/Story:
Hoping to walk away with a massive fortune, a trio of thieves break into the house of a blind man who isn't as helpless as he seems.

General
Complete name : Dont.Breathe.2016.BRRip.XviD.B4ND1T69.avi
Format : AVI
Format/Info : Audio Video Interleave
File size : 543 MiB
Duration : 1 h 28 min
Overall bit rate : 858 kb/s
Subtitles : Yes...Included(HI)

Video
ID : 0
Format : MPEG-4 Visual
Format profile : Advanced [email protected]
Format settings, BVOP : 2
Format settings, QPel : No
Format settings, GMC : No warppoints
Format settings, Matrix : Default (H.263)
Codec ID : XVID
Codec ID/Hint : XviD
Duration : 1 h 28 min
Bit rate : 717 kb/s
Width : 720 pixels
Height : 304 pixels
Display aspect ratio : 2.35:1
Frame rate : 23.976 (24000/1001) FPS
Color space : YUV
Chroma subsampling : 4:2:0
Bit depth : 8 bits
Scan type : Progressive
Compression mode : Lossy
Bits/(Pixel*Frame) : 0.137
Stream size : 454 MiB (84%)
Writing library : XviD 64

Audio
ID : 1
Format : MPEG Audio
Format version : Version 1
Format profile : Layer 3
Codec ID : 55
Codec ID/Hint : MP3
Duration : 1 h 28 min
Bit rate mode : Constant
Bit rate : 128 kb/s
Channel(s) : 2 channels
Sampling rate : 48.0 kHz
Compression mode : Lossy
Stream size : 81.1 MiB (15%)
Alignment : Aligned on interleaves
Interleave, duration : 24 ms (0.58 video frame)

Screenshots:










Please Seed For As Long As Possible
Or At Least 1:1 Ratio...Thanks
Enjoy Peeps


Trackers List

Tracker Name
udp://tracker.opentrackr.org:1337/announce
udp://open.stealth.si:80/announce
udp://exodus.desync.com:6969/announce
udp://9.rarbg.to:2790/announce
udp://opentor.org:2710/announce
udp://explodie.org:6969/announce
udp://tracker.uw0.xyz:6969/announce
udp://opentracker.i2p.rocks:6969/announce
udp://9.rarbg.me:2980/announce
udp://tracker.tiny-vps.com:6969/announce
udp://tracker.moeking.me:6969/announce
udp://tracker.zerobytes.xyz:1337/announce
udp://retracker.netbynet.ru:2710/announce
udp://tracker.torrent.eu.org:451/announce
udp://p4p.arenabg.com:1337/announce

Torrent File Content

Dont.Breathe.2016.BRRip.XviD.B4ND1T69
  • Downloaded from ProStyleX.txt (0.1 KB)
  • Downloaded from ETTV.txt (0.1 KB)
  • Downloaded from The Pirate Bay.txt (0.1 KB)
  • Downloaded from 1337x.txt (0.1 KB)
  • Downloaded from Glodls.to.txt (0.3 KB)
  • Dont.Breathe.2016.BRRip.XviD.B4ND1T69.srt (67.7 KB)
  • Dont.Breathe.2016.BRRip.XviD.B4ND1T69.avi (543.5 MB)


Latest Searches