Dont.Breathe.2.2021.HDRip.XviD.B4ND1T69


    Seeders : 19      Leechers : 11

Downloads : 201
Language : English
tag : Crime,Horror,Thriller,




Description

Dont.Breathe.2.2021.HDRip.XviD.B4ND1T69



Director: Rodo Sayagues
Writers: Fede Alvarez(based on characters created by)Rodo Sayagues(based on characters created by)
Stars: Stephen Lang, Madelyn Grace, Brendan Sexton III

Plot/Story:
The sequel is set in the years following the initial deadly home invasion, where Norman Nordstrom (Stephen Lang) lives in quiet solace until his past sins catch up to him.

General
Complete name : Dont.Breathe.2.2021.HDRip.XviD.B4ND1T69.avi
Format : AVI
Format/Info : Audio Video Interleave
File size : 544 MiB
Duration : 1 h 38 min
Overall bit rate : 775 kb/s
Subtitles : Yes...Included(HI)

Video
ID : 0
Format : MPEG-4 Visual
Format profile : Advanced [email protected]
Format settings, BVOP : 2
Format settings, QPel : No
Format settings, GMC : No warppoints
Format settings, Matrix : Default (H.263)
Codec ID : XVID
Codec ID/Hint : XviD
Duration : 1 h 38 min
Bit rate : 634 kb/s
Width : 720 pixels
Height : 304 pixels
Display aspect ratio : 2.35:1
Frame rate : 23.976 (24000/1001) FPS
Color space : YUV
Chroma subsampling : 4:2:0
Bit depth : 8 bits
Scan type : Progressive
Compression mode : Lossy
Bits/(Pixel*Frame) : 0.121
Stream size : 445 MiB (82%)
Writing library : XviD 64

Audio
ID : 1
Format : MPEG Audio
Format version : Version 1
Format profile : Layer 3
Codec ID : 55
Codec ID/Hint : MP3
Duration : 1 h 38 min
Bit rate mode : Constant
Bit rate : 128 kb/s
Channel(s) : 2 channels
Sampling rate : 48.0 kHz
Compression mode : Lossy
Stream size : 89.9 MiB (17%)
Alignment : Aligned on interleaves
Interleave, duration : 24 ms (0.58 video frame)

Screenshots:










Please Seed For As Long As Possible
Or At Least 1:1 Ratio...Thanks
Enjoy Peeps


Trackers List

Tracker Name
udp://tracker.opentrackr.org:1337/announce
udp://open.stealth.si:80/announce
udp://exodus.desync.com:6969/announce
udp://9.rarbg.to:2790/announce
udp://opentor.org:2710/announce
udp://explodie.org:6969/announce
udp://tracker.uw0.xyz:6969/announce
udp://opentracker.i2p.rocks:6969/announce
udp://9.rarbg.me:2980/announce
udp://tracker.tiny-vps.com:6969/announce
udp://tracker.moeking.me:6969/announce
udp://tracker.zerobytes.xyz:1337/announce
udp://retracker.netbynet.ru:2710/announce
udp://tracker.torrent.eu.org:451/announce
udp://p4p.arenabg.com:1337/announce

Torrent File Content

Dont.Breathe.2.2021.HDRip.XviD.B4ND1T69
  • Downloaded from ProStyleX.txt (0.1 KB)
  • Downloaded from ETTV.txt (0.1 KB)
  • Downloaded from The Pirate Bay.txt (0.1 KB)
  • Downloaded from 1337x.txt (0.1 KB)
  • Downloaded from Glodls.to.txt (0.3 KB)
  • Dont.Breathe.2.2021.HDRip.XviD.B4ND1T69.srt (53.8 KB)
  • Dont.Breathe.2.2021.HDRip.XviD.B4ND1T69.avi (544.4 MB)


Latest Searches