Deadfall.2012.BRRip.XviD.B4ND1T69


    Seeders : 56      Leechers : 9

Downloads : 657
Language : English
tag : Crime,Drama,Thriller,Deadfall,




Description

Deadfall.2012.BRRip.XviD.B4ND1T69



Director: Stefan Ruzowitzky
Writer: Zach Dean
Stars: Eric Bana, Olivia Wilde, Charlie Hunnam

Plot/Story:
Two siblings decide to fend for themselves in the wake of a botched casino heist and their unlikely reunion during another family's Thanksgiving celebration.

General
Complete name : Deadfall.2012.BRRip.XviD.B4ND1T69.avi
Format : AVI
Format/Info : Audio Video Interleave
File size : 980 MiB
Duration : 1 h 34 min
Overall bit rate : 1 448 kb/s
Subtitles : Yes...Included(HI)

Video
ID : 0
Format : MPEG-4 Visual
Format profile : Advanced [email protected]
Format settings, BVOP : 2
Format settings, QPel : No
Format settings, GMC : No warppoints
Format settings, Matrix : Default (H.263)
Codec ID : XVID
Codec ID/Hint : XviD
Duration : 1 h 34 min
Bit rate : 1 307 kb/s
Width : 720 pixels
Height : 304 pixels
Display aspect ratio : 2.35:1
Frame rate : 23.976 (24000/1001) FPS
Color space : YUV
Chroma subsampling : 4:2:0
Bit depth : 8 bits
Scan type : Progressive
Compression mode : Lossy
Bits/(Pixel*Frame) : 0.249
Stream size : 885 MiB (90%)
Writing library : XviD 64

Audio
ID : 1
Format : MPEG Audio
Format version : Version 1
Format profile : Layer 3
Codec ID : 55
Codec ID/Hint : MP3
Duration : 1 h 34 min
Bit rate mode : Constant
Bit rate : 128 kb/s
Channel(s) : 2 channels
Sampling rate : 48.0 kHz
Compression mode : Lossy
Stream size : 86.6 MiB (9%)
Alignment : Aligned on interleaves
Interleave, duration : 24 ms (0.58 video frame)

Screenshots:










Please Seed For As Long As Possible
Or At Least 1:1 Ratio...Thanks
Enjoy Peeps


Trackers List

Tracker Name
udp://tracker.opentrackr.org:1337/announce
udp://open.stealth.si:80/announce
udp://exodus.desync.com:6969/announce
udp://9.rarbg.to:2790/announce
udp://opentor.org:2710/announce
udp://explodie.org:6969/announce
udp://tracker.uw0.xyz:6969/announce
udp://opentracker.i2p.rocks:6969/announce
udp://9.rarbg.me:2980/announce
udp://tracker.tiny-vps.com:6969/announce
udp://tracker.moeking.me:6969/announce
udp://tracker.zerobytes.xyz:1337/announce
udp://retracker.netbynet.ru:2710/announce
udp://tracker.torrent.eu.org:451/announce
udp://p4p.arenabg.com:1337/announce

Torrent File Content

Deadfall.2012.BRRip.XviD.B4ND1T69
  • Downloaded from ProStyleX.txt (0.1 KB)
  • Downloaded from ETTV.txt (0.1 KB)
  • Downloaded from The Pirate Bay.txt (0.1 KB)
  • Downloaded from 1337x.txt (0.1 KB)
  • Downloaded from Glodls.to.txt (0.3 KB)
  • Deadfall.2012.BRRip.XviD.B4ND1T69.srt (80.0 KB)
  • Deadfall.2012.BRRip.XviD.B4ND1T69.avi (980.3 MB)


Latest Searches