David Bowie - Excerpts From 1.Outside (1995) (PBTHAL LP 24-96) [FLAC] vtwin88cube


    Seeders : 35      Leechers : 12

Downloads : 32
Language : English




Description

David Bowie
Excerpts From 1.Outside:
The Nathan Adler Diaries:
A Hyper Cycle (1995)
FLAC LOSSLESS 24bit-96kHz
PBTHAL Vinyl Rip
2012 Music On Vinyl


Not my rip. Any questions about the
eqipment used can be found in the
lineage text.


allmusic.com...

1. Outside bears the subtitle "The Diary of Nathan Adler or The Art-Ritual Murder of Baby Grace Blue. A Non-Linear Gothic Drama Hyper-Cycle." Alright, so it reeks of pretension. One belabors the point because Bowie at his best has always been pretentious, risque, creatively (if sometimes contrivedly) over the top. 1. Outside marks the first in a planned series of collaborations with multi-instrumentalist, producer, and conceptualist Brian Eno based on a Bowie short story. In this end-of-millennium setting, "art-crimes" and "concept muggings" merit their own police division funded by the "Arts Protectorate of London." Echoes of the Berlin "outsider" Bowie/Eno '70s trilogy of Low, Heroes, and Lodger reverberate throughout, including a return to the "cut-and-paste" lyric-assembly method then employed, only this time fed through a Mac rather than more labor-intensive paper-and-scissors tools. The thusly fragmented "narrative" follows the investigations of Detective Professor Adler into the murder and subsequent dismembered body parts exhibition of 14-year-old runaway Baby Grace Blue. In this cut-up, composite world, each character, including Adler, Baby Grace, mixed-race youth Leon Blank, septuagenarian Algeria Touchshriek, and art-terrorist Ramona A. Stone, reflects a different aspect of Bowie himself and is therefore a component of all the previous personas Bowie has enacted over the years. The music also randomly dices and displays many of the previous album settings such personas have populated. To complete the cube, Bowie then draws on musicians that form a kind of anagram band from his past.


foobar2000 1.4.3 / Dynamic Range Meter 1.1.1
log date: 2021-05-02 22:16:51

--------------------------------------------------------------------------------
Analyzed: David Bowie / Excerpts From 1.Outside: The Nathan Adler Diaries: A Hyper Cycle
--------------------------------------------------------------------------------

DR Peak RMS Duration Track
--------------------------------------------------------------------------------
DR7 -13.62 dB -26.51 dB 0:23 01-Leon Takes Us Outside (Edit)
DR11 -1.33 dB -14.73 dB 4:04 02-Outside
DR11 -1.86 dB -14.76 dB 4:58 03-The Hearts Filthy Lesson
DR11 -3.17 dB -16.70 dB 6:34 04-A Small Plot Of Land
DR14 -5.58 dB -22.22 dB 1:40 05-Segue - Baby Grace (A Horrid Cassette)
DR10 -1.00 dB -14.04 dB 5:15 06-Hallo Spaceboy
DR12 -1.09 dB -17.20 dB 5:06 07-The Motel (Edit)
DR11 -1.00 dB -13.49 dB 3:49 08-I Have Not Been To Oxford Town
DR9 -1.80 dB -14.04 dB 4:21 09-The Voyeur Of Utter Destruction (As Beauty)
DR11 -2.03 dB -15.46 dB 4:02 10-Segue - Ramona A. Stone / I Am With Name
DR11 -1.67 dB -14.80 dB 4:36 11-We Prick You
DR12 -5.83 dB -20.17 dB 1:01 12-Segue - Nathan Adler
DR11 -2.08 dB -14.46 dB 4:31 13-I'm Deranged

Number of tracks: 13
Official DR value: DR11

Samplerate: 96000 Hz
Channels: 2
Bits per sample: 24
Bitrate: 3117 kbps
Codec: FLAC




Support the artists...
buy it if you like it!

Sharing since 2010
Thanks for Seeding!
Cheers ;)
88


Trackers List

Tracker Name
udp://tracker.openbittorrent.com:80/announce
udp://exodus.desync.com:6969/announce
udp://denis.stalker.upeer.me:6969/announce
udp://tracker.torrent.eu.org:451/announce
udp://tracker.coppersurfer.tk:6969/announce
udp://tracker.internetwarriors.net:1337/announce
udp://explodie.org:6969/announce
udp://tracker.leechers-paradise.org:6969/announce
http://tracker.opentrackr.org:1337/announce

Torrent File Content

David Bowie - Excerpts From 1.Outside (1995) (2012 MOV PBTHAL LP 24-96) [FLAC] vtwin88cube
  • 00.-David Bowie - Excerpts From 1.Outside.m3u (0.4 KB)
  • 01.-Leon Takes Us Outside (Edit).flac (7.8 MB)
  • 02.-Outside.flac (95.8 MB)
  • 03.-The Hearts Filthy Lesson.flac (115.9 MB)
  • 04.-A Small Plot Of Land.flac (149.3 MB)
  • 05.-Segue - Baby Grace (A Horrid Cassette).flac (35.9 MB)
  • 06.-Hallo Spaceboy.flac (122.0 MB)
  • 07.-The Motel (Edit).flac (110.6 MB)
  • 08.-I Have Not Been To Oxford Town.flac (86.3 MB)
  • 09.-The Voyeur Of Utter Destruction (As Beauty).flac (97.7 MB)
  • 10.-Segue - Ramona A. Stone I Am With Name.flac (91.1 MB)
  • 11.-We Prick You.flac (103.3 MB)
  • 12.-Segue - Nathan Adler.flac (21.4 MB)
  • 13.-I'm Deranged.flac (100.8 MB)
  • DR11.txt (1.7 KB)
  • folder.jpg (32.8 KB)
  • lineage.txt (0.5 KB)


Latest Searches