Cruella (2021) 1080p x264 KK650 Regraded


    Seeders : 3      Leechers : 9

Movie : Cruella
Downloads : 8
Language : English
Genres : Comedy,Crime,
Release date : 2021
Summary : In 1970s London amidst the punk rock revolution, a young grifter named Estella is determined to make a name for herself with her designs. She befriends a pair of young thieves who appreciate her appetite for mischief, and together they are able to build a life for themselves on the London streets. One day, Estella’s flair for fashion catches the eye of the Baroness von Hellman, a fashion legend who is devastatingly chic and terrifyingly haute. But their relationship sets in motion a course of events and revelations that will cause Estella to embrace her wicked side and become the raucous, fashionable and revenge-bent Cruella.




Description

A number of you asked that I include all the subtitles from the original release I used as my source in this release as well so here they are.

Chinese, Danish, Dutch, English, Finnish, French, German, Italian, Korean, Norwegian, Polish, Portuguese, Spanish and Swedish subtitles are also included in this release.


Here are some screencap comparisons:


Blu-ray 1:



Regraded 1:



Blu-ray 2:



Regraded 2:



Blu-ray 3:



Regraded 3:



Blu-ray 4:



Regraded 4:




Video
ID : 1
Format : AVC
Format/Info : Advanced Video Codec
Format profile : [email protected]
Format settings, CABAC : Yes
Format settings, RefFrames : 4 frames
Codec ID : V_MPEG4/ISO/AVC
Duration : 2 h 17 min
Bit rate mode : Variable
Bit rate : 9 000 kb/s
Maximum bit rate : 14.0 Mb/s
Width : 1 920 pixels
Height : 1 080 pixels

Audio
ID : 2
Format : E-AC-3
Format/Info : Enhanced Audio Coding 3
Format profile : E-AC-3+Atmos / E-AC-3
Format settings, Endianness : Big
Codec ID : A_EAC3
Duration : 2 h 17 min
Bit rate mode : Constant
Bit rate : 768 kb/s
Channel(s) : 15 objects / 6 channels
Channel positions : 15 objects / Front: L C R, Side: L R, LFE
Sampling rate : 48.0 kHz
Frame rate : 187.500 FPS (256 SPF)
Compression mode : Lossy
Stream size : 754 MiB (8%)
Title : English
Language : English
Service kind : Complete Main
Default : Yes
Forced : No

Text #1
ID : 3
Format : UTF-8
Codec ID : S_TEXT/UTF8
Codec ID/Info : UTF-8 Plain Text
Duration : 2 h 13 min
Bit rate : 41 b/s
Count of elements : 1532
Stream size : 40.5 KiB (0%)
Title : Chinese (Simplified)
Language : Chinese
Default : No
Forced : No

Text #2
ID : 4
Format : UTF-8
Codec ID : S_TEXT/UTF8
Codec ID/Info : UTF-8 Plain Text
Duration : 2 h 13 min
Bit rate : 43 b/s
Count of elements : 1157
Stream size : 42.2 KiB (0%)
Title : Dansk
Language : Danish
Default : No
Forced : No

Text #3
ID : 5
Format : UTF-8
Codec ID : S_TEXT/UTF8
Codec ID/Info : UTF-8 Plain Text
Duration : 2 h 13 min
Bit rate : 39 b/s
Count of elements : 1484
Stream size : 38.8 KiB (0%)
Title : Deutsch
Language : German
Default : No
Forced : No

Text #4
ID : 6
Format : UTF-8
Codec ID : S_TEXT/UTF8
Codec ID/Info : UTF-8 Plain Text
Duration : 2 h 13 min
Bit rate : 54 b/s
Count of elements : 1584
Stream size : 53.1 KiB (0%)
Title : Deutsch (SDH)
Language : German
Default : No
Forced : No

Text #5
ID : 7
Format : UTF-8
Codec ID : S_TEXT/UTF8
Codec ID/Info : UTF-8 Plain Text
Duration : 2 h 11 min
Bit rate : 51 b/s
Count of elements : 1902
Stream size : 49.4 KiB (0%)
Title : English (SDH)
Language : English
Default : No
Forced : No

Text #6
ID : 8
Format : UTF-8
Codec ID : S_TEXT/UTF8
Codec ID/Info : UTF-8 Plain Text
Duration : 2 h 13 min
Bit rate : 40 b/s
Count of elements : 1483
Stream size : 39.3 KiB (0%)
Title : Español
Language : Spanish
Default : No
Forced : No

Text #7
ID : 9
Format : UTF-8
Codec ID : S_TEXT/UTF8
Codec ID/Info : UTF-8 Plain Text
Duration : 2 h 6 min
Bit rate : 46 b/s
Count of elements : 1510
Stream size : 43.3 KiB (0%)
Title : Español (Latinoamericano)
Language : Spanish
Default : No
Forced : No

Text #8
ID : 10
Format : UTF-8
Codec ID : S_TEXT/UTF8
Codec ID/Info : UTF-8 Plain Text
Duration : 2 h 6 min
Bit rate : 49 b/s
Count of elements : 1443
Stream size : 45.5 KiB (0%)
Title : Español (Latinoamericano) (SDH)
Language : Spanish
Default : No
Forced : No

Text #9
ID : 11
Format : UTF-8
Codec ID : S_TEXT/UTF8
Codec ID/Info : UTF-8 Plain Text
Duration : 2 h 13 min
Bit rate : 41 b/s
Count of elements : 1451
Stream size : 40.5 KiB (0%)
Title : Français
Language : French
Default : No
Forced : No

Text #10
ID : 12
Format : UTF-8
Codec ID : S_TEXT/UTF8
Codec ID/Info : UTF-8 Plain Text
Duration : 2 h 13 min
Bit rate : 49 b/s
Count of elements : 1530
Stream size : 47.8 KiB (0%)
Title : Français (Canadien)
Language : French
Default : No
Forced : No

Text #11
ID : 13
Format : UTF-8
Codec ID : S_TEXT/UTF8
Codec ID/Info : UTF-8 Plain Text
Duration : 2 h 11 min
Bit rate : 52 b/s
Count of elements : 1774
Stream size : 51.2 KiB (0%)
Title : Français (SDH)
Language : French
Default : No
Forced : No

Text #12
ID : 14
Format : UTF-8
Codec ID : S_TEXT/UTF8
Codec ID/Info : UTF-8 Plain Text
Duration : 2 h 13 min
Bit rate : 43 b/s
Count of elements : 1494
Stream size : 42.0 KiB (0%)
Title : Italiano
Language : Italian
Default : No
Forced : No

Text #13
ID : 15
Format : UTF-8
Codec ID : S_TEXT/UTF8
Codec ID/Info : UTF-8 Plain Text
Duration : 2 h 6 min
Bit rate : 47 b/s
Count of elements : 1520
Stream size : 44.4 KiB (0%)
Title : Korean
Language : Korean
Default : No
Forced : No

Text #14
ID : 16
Format : UTF-8
Codec ID : S_TEXT/UTF8
Codec ID/Info : UTF-8 Plain Text
Duration : 2 h 13 min
Bit rate : 37 b/s
Count of elements : 1255
Stream size : 36.9 KiB (0%)
Title : Nederlands
Language : Dutch
Default : No
Forced : No

Text #15
ID : 17
Format : UTF-8
Codec ID : S_TEXT/UTF8
Codec ID/Info : UTF-8 Plain Text
Duration : 2 h 13 min
Bit rate : 39 b/s
Count of elements : 1510
Stream size : 38.7 KiB (0%)
Title : Norsk
Language : Norwegian
Default : No
Forced : No

Text #16
ID : 18
Format : UTF-8
Codec ID : S_TEXT/UTF8
Codec ID/Info : UTF-8 Plain Text
Duration : 2 h 13 min
Bit rate : 40 b/s
Count of elements : 1485
Stream size : 39.3 KiB (0%)
Title : Polski
Language : Polish
Default : No
Forced : No

Text #17
ID : 19
Format : UTF-8
Codec ID : S_TEXT/UTF8
Codec ID/Info : UTF-8 Plain Text
Duration : 2 h 13 min
Bit rate : 43 b/s
Count of elements : 1508
Stream size : 42.6 KiB (0%)
Title : Português
Language : Portuguese
Default : No
Forced : No

Text #18
ID : 20
Format : UTF-8
Codec ID : S_TEXT/UTF8
Codec ID/Info : UTF-8 Plain Text
Duration : 2 h 13 min
Bit rate : 43 b/s
Count of elements : 1490
Stream size : 42.4 KiB (0%)
Title : Português (Brasil)
Language : Portuguese
Default : No
Forced : No

Text #19
ID : 21
Format : UTF-8
Codec ID : S_TEXT/UTF8
Codec ID/Info : UTF-8 Plain Text
Duration : 2 h 6 min
Bit rate : 49 b/s
Count of elements : 1581
Stream size : 46.4 KiB (0%)
Title : Português (Brasil) (SDH)
Language : Portuguese
Default : No
Forced : No

Text #20
ID : 22
Format : UTF-8
Codec ID : S_TEXT/UTF8
Codec ID/Info : UTF-8 Plain Text
Duration : 2 h 13 min
Bit rate : 44 b/s
Count of elements : 1505
Stream size : 43.5 KiB (0%)
Title : Suomi
Language : Finnish
Default : No
Forced : No

Text #21
ID : 23
Format : UTF-8
Codec ID : S_TEXT/UTF8
Codec ID/Info : UTF-8 Plain Text
Duration : 2 h 13 min
Bit rate : 39 b/s
Count of elements : 1176
Stream size : 38.8 KiB (0%)
Title : Svenska
Language : Swedish
Default : No
Forced : No

Text #22
ID : 24
Format : UTF-8
Codec ID : S_TEXT/UTF8
Codec ID/Info : UTF-8 Plain Text
Duration : 2 h 6 min
Bit rate : 45 b/s
Count of elements : 1576
Stream size : 41.9 KiB (0%)
Title : English
Language : English
Default : No
Forced : No


Trackers List

Tracker Name
udp://eddie4.nl:6969/announce
udp://tracker.coppersurfer.tk:6969/announce
udp://tracker.opentrackr.org:1337/announce
udp://tracker.leechers-paradise.org:6969/announce
udp://tracker.zer0day.to:1337/announce
http://tracker3.itzmx.com:8080/announce
http://182.176.139.129:6969/announce
http://www.opentrackr.org/announce
udp://mgtracker.org:2710/announce

Torrent File Content

Cruella.2021.1080p.KK650.Regraded
  • #GOOGLE.KK650.REGRADED.FOR.MORE.RELEASES#.nfo (0.0 KB)
  • badnews.txt (0.8 KB)
  • Cruella.2021.1080p.KK650.Regraded.mkv (9.3 GB)
  • applied changes
    • BLANKET.YELLOW.TINT.REMOVED.nfo (0.0 KB)
    • COLOUR.SATURATION.DECREASED.nfo (0.0 KB)
    screencap comparisons
    • 01.jpg (866.9 KB)
    • 01regraded.jpg (881.6 KB)
    • 02.jpg (1.1 MB)
    • 02regraded.jpg (1.1 MB)
    • 03.jpg (1.0 MB)
    • 03regraded.jpg (1.0 MB)
    • 04.jpg (982.8 KB)
    • 04regraded.jpg (983.8 KB)
    subtitles
    • english.srt (103.9 KB)
    • spanish.srt (96.5 KB)

Related torrents

Torrent Name Added Size Seed Leech
1 month ago 898.6 MB 2227 1027
1 month ago 5.3 GB 897 489
1 month ago 2.9 GB 335 184
1 month ago 6.8 GB 281 182
1 month ago 1 GB 212 151


Latest Searches

ir  |  My Naked Secret  |  Riverdale s05  |  expand!  |  Der Wunschdrache  |  Land Rush  |  house of payne  |  Arsene Lupin  |  mobi epub  |  罗平  |  Dear...  |  Snapchat  |  video editor  |  Rogue Season 1  |  Timeless  |