Blood.Brothers.Malcolm.X.And.Muhammad.Ali.2021.WEBRip.x264-ION10


    Seeders : 30      Leechers : 7

Downloads : 134
Language : English
tag : MOVIE,RARBG,




Description

Screens... (click to enlarge):











Infolink -> https://www.imdb.com/title/tt15095938/

Mediainfo

Quote:

Video
ID : 1
Format : AVC
Format/Info : Advanced Video Codec
Format profile : [email protected]
Format settings : CABAC / 5 Ref Frames
Format settings, CABAC : Yes
Format settings, Reference frames : 5 frames
Codec ID : avc1
Codec ID/Info : Advanced Video Coding
Duration : 1 h 36 min
Bit rate : 1 100 kb/s
Width : 720 pixels
Height : 388 pixels
Display aspect ratio : 1.85:1
Original display aspect ratio : 1.85:1
Frame rate mode : Constant
Frame rate : 23.976 (24000/1001) FPS
Color space : YUV
Chroma subsampling : 4:2:0
Bit depth : 8 bits
Scan type : Progressive
Bits/(Pixel*Frame) : 0.164
Stream size : 758 MiB (81%)
Title : RARBG - Blood.Brothers.Malcolm.X.And.Muhammad.Ali.2021.WEBRip.x264-ION10
Writing library : x264 core 152 r2851M ba24899
Encoding settings : cabac=1 / ref=5 / deblock=1:-1:-1 / analyse=0x3:0x113 / me=umh / subme=9 / psy=1 / psy_rd=1.00:0.15 / mixed_ref=1 / me_range=16 / chroma_me=1 / trellis=2 / 8x8dct=1 / cqm=0 / deadzone=21,11 / fast_pskip=1 / chroma_qp_offset=-3 / threads=16 / lookahead_threads=1 / sliced_threads=0 / nr=0 / decimate=1 / interlaced=0 / bluray_compat=0 / constrained_intra=0 / bframes=3 / b_pyramid=2 / b_adapt=2 / b_bias=0 / direct=3 / weightb=1 / open_gop=0 / weightp=2 / keyint=250 / keyint_min=23 / scenecut=40 / intra_refresh=0 / rc_lookahead=50 / rc=2pass / mbtree=1 / bitrate=1100 / ratetol=1.0 / qcomp=0.60 / qpmin=0 / qpmax=69 / qpstep=4 / cplxblur=20.0 / qblur=0.5 / ip_ratio=1.40 / aq=1:1.00
Language : English
Encoded date : UTC 2021-09-09 07:19:14
Tagged date : UTC 2021-09-09 07:19:14
Codec configuration box : avcC

Audio
ID : 2
Format : AAC LC
Format/Info : Advanced Audio Codec Low Complexity
Codec ID : mp4a-40-2
Duration : 1 h 36 min
Bit rate mode : Constant
Bit rate : 256 kb/s
Channel(s) : 2 channels
Channel layout : L R
Sampling rate : 48.0 kHz
Frame rate : 46.875 FPS (1024 SPF)
Compression mode : Lossy
Stream size : 177 MiB (19%)
Title : RARBG - Blood.Brothers.Malcolm.X.And.Muhammad.Ali.2021.WEBRip.x264-ION10
Language : English
Default : Yes
Alternate group : 1
Encoded date : UTC 2021-09-09 07:19:14
Tagged date : UTC 2021-09-09 07:19:14


Trackers List

Tracker Name
http://tracker.trackerfix.com:80/announce
udp://9.rarbg.me:2950/announce
udp://9.rarbg.to:2720/announce
udp://tracker.fatkhoala.org:13750/announce
udp://tracker.tallpenguin.org:15800/announce

Torrent File Content

Blood.Brothers.Malcolm.X.And.Muhammad.Ali.2021.WEBRip.x264-ION10
  • Blood.Brothers.Malcolm.X.And.Muhammad.Ali.2021.WEBRip.x264-ION10.mp4 (938.7 MB)
  • RARBG.txt (0.0 KB)
  • RARBG_DO_NOT_MIRROR.exe (0.1 KB)
  • Subs
    • 10_Finnish.srt (106.0 KB)
    • 11_French.srt (110.9 KB)
    • 12_Hebrew.srt (146.4 KB)
    • 13_hrv.srt (104.5 KB)
    • 14_Hungarian.srt (108.7 KB)
    • 15_Indonesian.srt (110.8 KB)
    • 16_Italian.srt (104.6 KB)
    • 17_Japanese.srt (117.4 KB)
    • 18_Korean.srt (125.7 KB)
    • 19_may.srt (105.6 KB)
    • 20_nor.srt (102.0 KB)
    • 21_Dutch.srt (110.6 KB)
    • 22_Polish.srt (104.6 KB)
    • 23_Portuguese.srt (112.2 KB)
    • 24_Portuguese.srt (109.1 KB)
    • 25_Romanian.srt (108.0 KB)
    • 26_Russian.srt (148.9 KB)
    • 27_Swedish.srt (113.3 KB)
    • 28_Thai.srt (207.4 KB)
    • 29_Turkish.srt (107.0 KB)
    • 2_Arabic.srt (151.3 KB)
    • 30_ukr.srt (152.2 KB)
    • 31_Vietnamese.srt (128.9 KB)
    • 32_Chinese.srt (109.7 KB)
    • 33_Chinese.srt (115.4 KB)
    • 3_Czech.srt (106.6 KB)
    • 4_Danish.srt (99.5 KB)
    • 5_German.srt (103.2 KB)
    • 6_Greek.srt (151.0 KB)
    • 7_English.srt (120.1 KB)
    • 8_Spanish.srt (111.4 KB)
    • 9_Spanish.srt (111.6 KB)


Latest Searches