Bhuj: The Pride of India (2021) Hindi UNTOUCHED 1080p HS WEB-DL AC3DD5.1 ESub 1.6GB [HDWebMovies]


    Seeders : 763      Leechers : 152

Movie : Bhuj: The Pride of India
Downloads : 36199
Language : Hindi
tag : Bhuj,2021,Hindi,war,720p,WEB-DL,HDWebMovies,
Genres : War,History,Action,Drama,
Release date : 2021
Summary : Set in the backdrop of the 1971 Indo-Pakistan War, the film tells the story of the IAF Squadron Leader Vijay Karnik, and his bravery, patriotism and determination.




Description


Encoded by                               :  ? ? ? ? ? ? ? ? ? ? ?




Movie name :


Bhuj The Pride of India (2021) Hindi UNTOUCHED 1080p HS WEB-DL AC3DD5.1 ESub 1.6GB  [HDWebMovies]


General
Format : Matroska
Format version : Version 4
File size : 1.57 GiB
Duration : 1 h 53 min
Overall bit rate : 1 987 kb/s
Encoded date : UTC 2021-08-13 15:38:05
Writing application : mkvmerge v60.0.0 ('Are We Copies?') 64-bit
Writing library : libebml v1.4.2 + libmatroska v1.6.4

Video
ID : 1
Format : AVC
Format/Info : Advanced Video Codec
Format profile : [email protected]
Format settings : CABAC / 4 Ref Frames
Format settings, CABAC : Yes
Format settings, Reference frames : 4 frames
Format settings, GOP : M=4, N=48
Codec ID : V_MPEG4/ISO/AVC
Duration : 1 h 53 min
Bit rate : 1 800 kb/s
Width : 1 920 pixels
Height : 1 080 pixels
Display aspect ratio : 16:9
Frame rate mode : Constant
Frame rate : 24.000 FPS
Color space : YUV
Chroma subsampling : 4:2:0
Bit depth : 8 bits
Scan type : Progressive
Bits/(Pixel*Frame) : 0.036
Stream size : 1.42 GiB (90%)
Writing library : x264 core 155 r2917+2 f192430
Language : Hindi
Default : Yes
Forced : No
Color range : Limited
Color primaries : BT.709
Transfer characteristics : BT.709
Matrix coefficients : BT.709

Audio
ID : 2
Format : E-AC-3
Format/Info : Enhanced AC-3
Commercial name : Dolby Digital Plus
Codec ID : A_EAC3
Duration : 1 h 53 min
Bit rate mode : Constant
Bit rate : 192 kb/s
Channel(s) : 6 channels
Channel layout : L R C LFE Ls Rs
Sampling rate : 48.0 kHz
Frame rate : 31.250 FPS (1536 SPF)
Compression mode : Lossy
Stream size : 156 MiB (10%)
Language : Hindi
Service kind : Complete Main
Default : Yes
Forced : No

Text
ID : 3
Format : UTF-8
Codec ID : S_TEXT/UTF8
Codec ID/Info : UTF-8 Plain Text
Duration : 1 h 43 min
Bit rate : 43 b/s
Count of elements : 915
Stream size : 32.8 KiB (0%)
Language : English
Default : Yes
Forced : No


                                       











Trackers List

Tracker Name
udp://tracker.nyaa.uk:6969/announce
udp://tracker.coppersurfer.tk:6969/announce
udp://tracker.opentrackr.org:1337/announce
udp://9.rarbg.com:2970/announce
udp://p4p.arenabg.com:1337/announce
udp://tracker.pirateparty.gr:6969/announce
udp://exodus.desync.com:6969/announce
udp://tracker.torrent.eu.org:451/announce
udp://tracker.tiny-vps.com:6969/announce
http://pow7.com:80/announce
udp://151.80.120.114:2710/announce
udp://9.rarbg.to:2790/announce
udp://open.stealth.si:80/announce
udp://tracker.leechers-paradise.org:6969/announce
http://t.nyaatracker.com:80/announce

Torrent File Content

  • Bhuj The Pride of India (2021) Hindi UNTOUCHED 1080p HS WEB-DL AC3DD5.1 ESub 1.6GB [HDWebMovies] .mkv (1.6 GB)

Related torrents

Torrent Name Added Size Seed Leech
1 month ago 1.4 GB 244 76
1 month ago 1.2 GB 220 34
1 month ago 2.8 GB 179 36
1 month ago 966.8 MB 116 25
1 month ago 1.1 GB 100 22


Latest Searches