Bhoot Police (2021) Hindi UNTOUCHED 720p DSNP WEB-DL AC3DD+5.1.x264 MSub 1.2GB [Themoviesboss]


    Seeders : 955      Leechers : 599

Movie : Bhoot Police
Downloads : 35216
Language : Hindi
tag : Bhoot Police,2021,Hindi,720p,DSNP,WEB-DL,HDWebMovie,
Genres : Adventure,Horror,Comedy,
Release date : 2021
Summary : Two brothers Vibhooti and Chiraunji have fought their share of ghosts. However, a new case in a remote village forces them to rethink their own abilities and beliefs.




Description


Encoded by                               : Harley Quinn




Movie name :


Bhoot Police (2021) Hindi UNTOUCHED 720p DSNP WEB-DL AC3DD+5.1.x264 MSub 1.2GB [Themoviesboss]


General
Format : Matroska
Format version : Version 4
File size : 1.34 GiB
Duration : 2 h 8 min
Overall bit rate : 1 490 kb/s
Encoded date : UTC 2021-09-09 19:05:39
Writing application : mkvmerge v60.0.0 ('Are We Copies?') 64-bit
Writing library : libebml v1.4.2 + libmatroska v1.6.4

Video
ID : 1
Format : AVC
Format/Info : Advanced Video Codec
Format profile : [email protected]
Format settings : CABAC / 5 Ref Frames
Format settings, CABAC : Yes
Format settings, Reference frames : 5 frames
Codec ID : V_MPEG4/ISO/AVC
Duration : 2 h 8 min
Bit rate : 1 300 kb/s
Width : 1 280 pixels
Height : 720 pixels
Display aspect ratio : 16:9
Frame rate mode : Constant
Frame rate : 24.000 FPS
Color space : YUV
Chroma subsampling : 4:2:0
Bit depth : 8 bits
Scan type : Progressive
Bits/(Pixel*Frame) : 0.059
Stream size : 1.16 GiB (87%)
Writing library : x264 core 155 r2917+2 f192430
Encoding settings : cabac=1 / ref=5 / deblock=1:-1:-1 / analyse=0x3:0x113 / me=hex / subme=8 / psy=1 / psy_rd=1.00:0.15 / mixed_ref=1 / me_range=16 / chroma_me=1 / trellis=2 / 8x8dct=1 / cqm=0 / deadzone=21,11 / fast_pskip=1 / chroma_qp_offset=-3 / threads=14 / lookahead_threads=2 / sliced_threads=0 / nr=0 / decimate=1 / interlaced=0 / bluray_compat=0 / constrained_intra=0 / bframes=3 / b_pyramid=2 / b_adapt=2 / b_bias=0 / direct=3 / weightb=1 / open_gop=0 / weightp=2 / keyint=48 / keyint_min=25 / scenecut=0 / intra_refresh=0 / rc_lookahead=48 / rc=2pass / mbtree=1 / bitrate=1300 / ratetol=1.0 / qcomp=0.60 / qpmin=0 / qpmax=69 / qpstep=4 / cplxblur=20.0 / qblur=0.5 / vbv_maxrate=1950 / vbv_bufsize=2600 / nal_hrd=none / filler=0 / ip_ratio=1.40 / aq=3:1.00
Default : Yes
Forced : No
Color range : Limited
Color primaries : BT.709
Matrix coefficients : BT.709

Audio
ID : 2
Format : E-AC-3
Format/Info : Enhanced AC-3
Commercial name : Dolby Digital Plus
Codec ID : A_EAC3
Duration : 2 h 8 min
Bit rate mode : Constant
Bit rate : 192 kb/s
Channel(s) : 6 channels
Channel layout : L R C LFE Ls Rs
Sampling rate : 48.0 kHz
Frame rate : 31.250 FPS (1536 SPF)
Compression mode : Lossy
Stream size : 177 MiB (13%)
Language : Hindi
Service kind : Complete Main
Default : Yes
Forced : No

Text #1
ID : 3
Format : UTF-8
Codec ID : S_TEXT/UTF8
Codec ID/Info : UTF-8 Plain Text
Duration : 2 h 5 min
Bit rate : 47 b/s
Count of elements : 1603
Stream size : 43.8 KiB (0%)
Language : English
Default : No
Forced : No

Text #2
ID : 4
Format : UTF-8
Codec ID : S_TEXT/UTF8
Codec ID/Info : UTF-8 Plain Text
Duration : 2 h 5 min
Bit rate : 117 b/s
Count of elements : 1669
Stream size : 108 KiB (0%)
Language : Hindi
Default : No
Forced : No

Text #3
ID : 5
Format : UTF-8
Codec ID : S_TEXT/UTF8
Codec ID/Info : UTF-8 Plain Text
Duration : 2 h 5 min
Bit rate : 142 b/s
Count of elements : 1669
Stream size : 131 KiB (0%)
Language : Telugu
Default : No
Forced : No

Text #4
ID : 6
Format : UTF-8
Codec ID : S_TEXT/UTF8
Codec ID/Info : UTF-8 Plain Text
Duration : 2 h 5 min
Bit rate : 127 b/s
Count of elements : 1669
Stream size : 118 KiB (0%)
Language : Tamil
Default : No
Forced : No




                                     










Trackers List

Tracker Name
udp://tracker.nyaa.uk:6969/announce
udp://tracker.coppersurfer.tk:6969/announce
udp://tracker.opentrackr.org:1337/announce
udp://9.rarbg.com:2820/announce
udp://p4p.arenabg.com:1337/announce
udp://tracker.pirateparty.gr:6969/announce
udp://exodus.desync.com:6969/announce
udp://tracker.torrent.eu.org:451/announce
udp://tracker.tiny-vps.com:6969/announce
http://pow7.com:80/announce
udp://9.rarbg.to:2750/announce
udp://open.stealth.si:80/announce
udp://tracker.leechers-paradise.org:6969/announce
http://t.nyaatracker.com:80/announce
udp://tracker.trackerfix.com:81/announce

Torrent File Content

  • Bhoot Police (2021) Hindi UNTOUCHED 720p DSNP WEB-DL AC3DD+5.1.x264 MSub 1.2GB [Themoviesboss].mkv (1.3 GB)

Related torrents

Torrent Name Added Size Seed Leech
13 days ago 2.2 GB 509 255
11 days ago 798.3 MB 193 122
11 days ago 1.6 GB 149 164
12 days ago 1.3 GB 125 24
11 days ago 1.1 GB 103 54


Latest Searches

Super Monsters  |  joshi  |  code black  |  fifa 21  |  area88  |  masters of sex  |  solar  |  mcfly  |  McEwen Second Chance Cowboy  |  im  |  teenage lesbian  |  ripper netflix  |  daybreakers  |  hierro  |  SPOTIFY  |