Au revoir les enfants (1987) BluRay.1080p.FLAC


    Seeders : 3      Leechers : 5

Movie : Goodbye, Children
Downloads : 15
Language : French
tag : drama,war,
Genres : Drama,War,
Release date : 1987
Summary : A French boarding school run by priests seems to be a haven from World War II until a new student arrives. He becomes the roommate of top student in his class. Rivals at first, the roommates form a bond and share a secret.




Description



General
Complete name: Au.revoir.les.enfants.(1987).BluRay.1080p.FLAC.mkv
Format: Matroska
Format version: Version 4
File size: 7.65 GiB
Duration: 1 h 45 min
Overall bit rate mode: Variable
Overall bit rate: 10.4 Mb/s

Video
ID: 1
Format: AVC
Format/Info: Advanced Video Codec
Format profile: [email protected]
Format settings: CABAC / 4 Ref Frames
Format settings, CABAC: Yes
Format settings, Reference frames: 4 frames
Codec ID: V_MPEG4/ISO/AVC
Duration: 1 h 45 min
Bit rate: 9 795 kb/s
Width: 1 792 pixels
Height: 1 080 pixels
Display aspect ratio: 5:3
Frame rate mode: Constant
Frame rate: 23.976 (24000/1001) FPS
Color space: YUV
Chroma subsampling: 4:2:0
Bit depth: 8 bits
Scan type: Progressive
Bits/(Pixel*Frame): 0.211
Stream size: 7.18 GiB (94%)
Title: French
Writing library: x264 core 138 r2358 9e941d1
Encoding settings: cabac=1 / ref=4 / deblock=1:0:0 / analyse=0x3:0x113 / me=umh / subme=8 / psy=1 / psy_rd=1.00:0.00 / mixed_ref=1 / me_range=16 / chroma_me=1 / trellis=1 / 8x8dct=1 / cqm=0 / deadzone=21,11 / fast_pskip=1 / chroma_qp_offset=-2 / threads=12 / lookahead_threads=2 / sliced_threads=0 / nr=0 / decimate=1 / interlaced=0 / bluray_compat=0 / constrained_intra=0 / bframes=3 / b_pyramid=2 / b_adapt=2 / b_bias=0 / direct=3 / weightb=1 / open_gop=0 / weightp=2 / keyint=240 / keyint_min=23 / scenecut=40 / intra_refresh=0 / rc_lookahead=50 / rc=2pass / mbtree=1 / bitrate=9795 / ratetol=1.0 / qcomp=0.60 / qpmin=0 / qpmax=69 / qpstep=4 / cplxblur=20.0 / qblur=0.5 / ip_ratio=1.40 / aq=1:1.00
Language: French
Default: Yes
Forced: No

Audio
ID: 2
Format: FLAC
Format/Info: Free Lossless Audio Codec
Codec ID: A_FLAC
Duration: 1 h 45 min
Bit rate mode: Variable
Bit rate: 637 kb/s
Channel(s): 1 channel
Channel layout: C
Sampling rate: 48.0 kHz
Frame rate: 11.719 FPS (4096 SPF)
Bit depth: 24 bits
Compression mode: Lossless
Stream size: 479 MiB (6%)
Title: French
Writing library: libFLAC 1.2.1 (UTC 2007-09-17)
Language: French
Default: Yes
Forced: No

Subtitles (srt files)















Trackers List

Tracker Name
udp://open.stealth.si:80/announce
udp://tracker.tiny-vps.com:6969/announce
udp://fasttracker.foreverpirates.co:6969/announce
udp://tracker.opentrackr.org:1337/announce
udp://explodie.org:6969/announce
udp://tracker.cyberia.is:6969/announce
udp://ipv4.tracker.harry.lu:80/announce
udp://tracker.uw0.xyz:6969/announce
udp://opentracker.i2p.rocks:6969/announce
udp://tracker.birkenwald.de:6969/announce
udp://tracker.torrent.eu.org:451/announce
udp://tracker.moeking.me:6969/announce
udp://opentor.org:2710/announce
udp://tracker.dler.org:6969/announce
udp://9.rarbg.to:2710/announce

Torrent File Content

Au.revoir.les.enfants.(1987).BluRay.1080p.FLAC
  • Au.revoir.les.enfants.(1987).BluRay.1080p.FLAC.mkv (7.6 GB)
  • Au.revoir.les.enfants.(1987).BluRay.1080p.FLAC.ES.srt (67.4 KB)
  • Au.revoir.les.enfants.(1987).BluRay.1080p.FLAC.EN.srt (63.4 KB)
  • Au.revoir.les.enfants.(1987).BluRay.1080p.FLAC.NL.srt (64.3 KB)
  • Au.revoir.les.enfants.(1987).BluRay.1080p.FLAC.PT.srt (66.5 KB)
  • NFO.txt (3.5 KB)

Related torrents

Torrent Name Added Size Seed Leech
1 year ago 963.6 MB 115 104
5 years ago 1.9 GB 23 1
8 months ago 4.3 GB 11 5
9 years ago 4.4 GB 9 0
2 years ago 3.4 GB 6 8


Latest Searches