Astérix et Cleopatre (1968) Blu-ray 1080p DTS


    Seeders : 0      Leechers : 5

Downloads : 14
Language : French
tag : animation,action,adventure,comedy,




Description



IMDB

Code:


General
Complete name : Astérix.et.Cleopatre.(1968).Blu-ray.1080p.DTS.[Borsalino].EL.srt
Format : SubRip
File size : 42.4 KiB

Text
Format : SubRip
Compression mode : Lossless

General
Complete name : Astérix.et.Cleopatre.(1968).Blu-ray.1080p.DTS.[Borsalino].EN.srt
Format : SubRip
File size : 56.0 KiB

Text
Format : SubRip
Compression mode : Lossless

General
Complete name : Astérix.et.Cleopatre.(1968).Blu-ray.1080p.DTS.[Borsalino].FR.srt
Format : SubRip
File size : 54.0 KiB

Text
Format : SubRip
Compression mode : Lossless

General
Complete name : Astérix.et.Cleopatre.(1968).Blu-ray.1080p.DTS.[Borsalino].NL.srt
Format : SubRip
File size : 41.1 KiB

Text
Format : SubRip
Compression mode : Lossless

General
Complete name : Astérix.et.Cleopatre.(1968).Blu-ray.1080p.DTS.[Borsalino].mkv
Format : Matroska
Format version : Version 4
File size : 4.04 GiB
Duration : 1 h 12 min
Overall bit rate mode : Variable
Overall bit rate : 7 996 kb/s
Movie name : Astérix.et.Cleopatre.(1968).Blu-ray.1080p.DTS.[Borsalino]
Writing application : mkvmerge v56.1.0 ('My Friend') 64-bit
Writing library : libebml v1.4.2 + libmatroska v1.6.4

Video
ID : 1
Format : HEVC
Format/Info : High Efficiency Video Coding
Format profile : Main [email protected]@High
Codec ID : V_MPEGH/ISO/HEVC
Duration : 1 h 12 min
Bit rate : 6 984 kb/s
Width : 1 496 pixels
Height : 1 080 pixels
Display aspect ratio : 1.385
Frame rate mode : Constant
Frame rate : 23.976 (24000/1001) FPS
Color space : YUV
Chroma subsampling : 4:2:0
Bit depth : 10 bits
Bits/(Pixel*Frame) : 0.180
Stream size : 3.53 GiB (87%)
Title : French
Language : French
Default : Yes
Forced : No
Color range : Limited
Color primaries : BT.709
Transfer characteristics : BT.709
Matrix coefficients : BT.709

Audio
ID : 2
Format : DTS XLL
Format/Info : Digital Theater Systems
Commercial name : DTS-HD Master Audio
Codec ID : A_DTS
Duration : 1 h 12 min
Bit rate mode : Variable
Bit rate : 1 008 kb/s
Channel(s) : 2 channels
Channel layout : L R
Sampling rate : 48.0 kHz
Frame rate : 93.750 FPS (512 SPF)
Bit depth : 16 bits
Compression mode : Lossless
Stream size : 522 MiB (13%)
Title : French
Language : French
Default : Yes
Forced : No



Spoken language



Subtitles (srt files)














Trackers List

Tracker Name
udp://tracker.leechers-paradise.org:6969/announce
udp://tracker.coppersurfer.tk:6969/announce
udp://tracker.opentrackr.org:1337/announce
udp://tracker.zer0day.to:1337/announce
udp://eddie4.nl:6969/announce
udp://explodie.org:6969/announce
udp://9.rarbg.me:2780/announce
udp://9.rarbg.to:2730/announce
udp://9.rarbg.me:2890
udp://9.rarbg.to:2890
udp://open.stealth.si:80/announce
udp://tracker.tiny-vps.com:6969/announce
http://p4p.arenabg.ch:1337/announce
udp://46.4.109.148:6969/announce
udp://tracker.openbittorrent.com:80/announce

Torrent File Content

Astérix.et.Cleopatre.(1968).Blu-ray.1080p.DTS.[Borsalino]
  • Astérix.et.Cleopatre.(1968).Blu-ray.1080p.DTS.[Borsalino].EL.srt (42.4 KB)
  • Astérix.et.Cleopatre.(1968).Blu-ray.1080p.DTS.[Borsalino].EN.srt (56.0 KB)
  • Astérix.et.Cleopatre.(1968).Blu-ray.1080p.DTS.[Borsalino].FR.srt (54.0 KB)
  • Astérix.et.Cleopatre.(1968).Blu-ray.1080p.DTS.[Borsalino].mkv (4.0 GB)
  • Astérix.et.Cleopatre.(1968).Blu-ray.1080p.DTS.[Borsalino].NL.srt (41.1 KB)


Latest Searches