Antenna 2021 x264 720p WebHD Hindi THE GOPI SAHI


    Seeders : 43      Leechers : 14

Downloads : 486
Language : Hindi




Description

Greets

Admin , Moderator , Noir, Ex0duS5150, theeshiznit, MisterQ, UserHEVC, miok, Silmarillion, Mr. Blue, MaDHeX and many more ;

Join Us On TeleGram

https://t.me/gopisahit

Format : Matroska
Format version : Version 4
File size : 600 MiB
Duration : 1 h 24 min
Overall bit rate : 994 kb/s
Movie name : Antenna 2021 GOPI SAHI
Encoded date : UTC 2021-05-31 03:12:27

Video
ID : 1
Format : AVC
Format/Info : Advanced Video Codec
Format profile : [email protected]
Format settings : CABAC / 5 Ref Frames
Format settings, CABAC : Yes
Format settings, Reference fra : 5 frames
Codec ID : V_MPEG4/ISO/AVC
Duration : 1 h 24 min
Bit rate : 899 kb/s
Width : 1 280 pixels
Height : 544 pixels
Display aspect ratio : 2.35:1
Frame rate mode : Constant
Frame rate : 25.000 FPS
Color space : YUV
Chroma subsampling : 4:2:0
Bit depth : 8 bits
Scan type : Progressive
Bits/(Pixel*Frame) : 0.052
Stream size : 542 MiB (90%)
Title : GOPI SAHI
Writing library : x264 core 157 r2935 545de2f

Audio
ID : 2
Format : AAC LC
Format/Info : Advanced Audio Codec Low Complexity
Codec ID : A_AAC-2
Duration : 1 h 24 min
Bit rate : 93.8 kb/s
Channel(s) : 2 channels
Channel layout : L R
Sampling rate : 48.0 kHz
Frame rate : 46.875 FPS (1024 SPF)
Compression mode : Lossy
Delay relative to video : -61 ms
Stream size : 56.6 MiB (9%)
Title : GOPI SAHI
Language : Hindi
Default : Yes
Forced : No






Trackers List

Tracker Name
udp://opentracker.i2p.rocks:6969/announce
udp://p4p.arenabg.com:1337/announce
udp://exodus.desync.com:6969/announce
udp://tracker.sbsub.com:2710/announce
udp://tracker.tiny-vps.com:6969/announce
udp://tracker.opentrackr.org:1337/announce
udp://open.stealth.si:80/announce
udp://retracker.lanta-net.ru:2710/announce
http://bt1.archive.org:6969/announce
http://bt2.archive.org:6969/announce
udp://tracker.uw0.xyz:6969/announce
http://tracker.files.fm:6969/announce
udp://tracker.zerobytes.xyz:1337/announce
https://tracker.nitrix.me:443/announce
udp://tracker.shkinev.me:6969/announce

Torrent File Content

  • Antenna 2021 x264 720p WebHD Hindi THE GOPI SAHI.mkv (599.8 MB)


Latest Searches