Adla Badli [Madhosh Diaries] (2021) UllU 1080p WEBRip x264 Multi Aud [ Hin,Tel,Tam ] AAC


    Seeders : 185      Leechers : 28

Downloads : 9385
Language : Hindi
tag : Drama,Romance,




Description



Madhosh Diaries ( Adla Badli ):
Fate brings together two couples, one whose marriage is falling apart while the other a complete contrast.
Through a business meet the first couple discovers the immoral fantasies of the other.
And so the husband mesmerized by his friend's wife asks his own dear wife to swap partner for a night.

Cast: Pamela Mondal , Captain Armaan , Ananya Samarth, Paras Arora
Director: Mohit Garg.

Format : Matroska
Format version : Version 4
File size : 496 MiB
Duration : 20 min 55 s
Overall bit rate : 3 314 kb/s

Video
ID : 1
Format : AVC
Format/Info : Advanced Video Codec
Format profile : [email protected]
Format settings : 1 Ref Frames
Format settings, CABAC : No
Format settings, Reference frames : 1 frame
Codec ID : V_MPEG4/ISO/AVC
Duration : 20 min 55 s
Bit rate : 2 927 kb/s
Width : 1 920 pixels
Height : 1 080 pixels

Audio #1
ID : 2
Format : AAC LC
Format/Info : Advanced Audio Codec Low Complexity
Codec ID : A_AAC-2
Duration : 20 min 55 s
Bit rate : 128 kb/s
Channel(s) : 2 channels
Channel layout : L R
Sampling rate : 48.0 kHz
Frame rate : 46.875 FPS (1024 SPF)
Compression mode : Lossy
Stream size : 19.1 MiB (4%)
Language : Hindi
Default : Yes
Forced : Yes

Audio #2
ID : 3
Format : AAC LC
Format/Info : Advanced Audio Codec Low Complexity
Codec ID : A_AAC-2
Duration : 20 min 55 s
Bit rate : 128 kb/s
Channel(s) : 2 channels
Channel layout : L R
Sampling rate : 48.0 kHz
Frame rate : 46.875 FPS (1024 SPF)
Compression mode : Lossy
Stream size : 19.1 MiB (4%)
Language : Telugu
Default : No
Forced : No

Audio #3
ID : 4
Format : AAC LC
Format/Info : Advanced Audio Codec Low Complexity
Codec ID : A_AAC-2
Duration : 20 min 55 s
Bit rate : 128 kb/s
Channel(s) : 2 channels
Channel layout : L R
Sampling rate : 48.0 kHz
Frame rate : 46.875 FPS (1024 SPF)
Compression mode : Lossy
Stream size : 19.1 MiB (4%)
Language : Tamil




Trackers List

Tracker Name
udp://9.rarbg.me:2780/announce
udp://tracker.tiny-vps.com:6969/announce
udp://tracker.torrent.eu.org:451/announce
udp://exodus.desync.com:6969/announce
http://explodie.org:6969/announce
http://tracker.opentrackr.org:1337/announce
udp://9.rarbg.to:2800/announce
http://t.nyaatracker.com:80/announce
udp://open.stealth.si:80/announce
http://91.217.91.21:3218/announce
http://tracker.dler.org:6969/announce
udp://ipv4.tracker.harry.lu:80/announce
udp://9.rarbg.me:2720/announce
udp://9.rarbg.to:2720/announce

Torrent File Content

  • Adla Badli [Madhosh Diaries] (2021) UllU 1080p WEBRip x264 Multi Aud [ Hin,Tel,Tam ] AAC.mkv (496.1 MB)


Latest Searches