96.2018.1080p.HDRip.x265.Dual.Audio.[Tamil.DD.5.1].[Hindi.DD.2.0.384Kbps].By.~KyoGo~


    Seeders : 7      Leechers : 6

Movie : 96
Downloads : 618
Language : Hindi
tag : 96,tamil,hindi,
Genres : Action,Romance,
Release date : 2018
Summary : Ram is a photographer and nature lover who travels all around India capturing moments. On a chance visit to his hometown Tanjavur, he goes into his school and begins to walk down memory lane to 1994 when he was a student harboring feelings for his classmate Janu.




Description



96.2018.1080p.HDRip.x265.Dual.Audio.[Tamil.DD.5.1].[Hindi.DD.2.0.384Kbps].By.~KyoGo~






Video
ID                          : 1
Format                      : HEVC
Format/Info                 : High Efficiency Video Coding
Format profile              : [email protected]@Main
Codec ID                    : V_MPEGH/ISO/HEVC
Duration                    : 2 h 31 min
Bit rate                    : 1 322 kb/s
Width                       : 1 920 pixels
Height                      : 816 pixels
Display aspect ratio        : 2.35:1
Frame rate mode             : Constant
Frame rate                  : 25.000 FPS
Color space                 : YUV
Chroma subsampling          : 4:2:0
Bit depth                   : 8 bits
Bits/(Pixel*Frame)          : 0.034
Stream size                 : 1.40 GiB (61%)
Language                    : Tamil
Default                     : Yes
Forced                      : No
Color range                 : Limited
Color primaries             : BT.709
Transfer characteristics    : BT.709
Matrix coefficients         : BT.709

Audio #1
ID                          : 2
Format                      : AC-3
Format/Info                 : Audio Coding 3
Commercial name             : Dolby Digital
Codec ID                    : A_AC3
Duration                    : 2 h 31 min
Bit rate mode               : Constant
Bit rate                    : 448 kb/s
Channel(s)                  : 6 channels
Channel layout              : L R C LFE Ls Rs
Sampling rate               : 48.0 kHz
Frame rate                  : 31.250 FPS (1536 SPF)
Compression mode            : Lossy
Delay relative to video     : 23 ms
Stream size                 : 486 MiB (21%)
Language                    : Tamil
Service kind                : Complete Main
Default                     : No
Forced                      : No

Audio #2
ID                          : 3
Format                      : AC-3
Format/Info                 : Audio Coding 3
Commercial name             : Dolby Digital
Codec ID                    : A_AC3
Duration                    : 2 h 31 min
Bit rate mode               : Constant
Bit rate                    : 384 kb/s
Channel(s)                  : 2 channels
Channel layout              : L R
Sampling rate               : 48.0 kHz
Frame rate                  : 31.250 FPS (1536 SPF)
Compression mode            : Lossy
Delay relative to video     : -5 ms
Stream size                 : 416 MiB (18%)
Language                    : Hindi
Service kind                : Complete Main
Default                     : Yes
Forced                      : Yes

Text
ID                          : 4
Format                      : UTF-8
Codec ID                    : S_TEXT/UTF8
Codec ID/Info               : UTF-8 Plain Text
Duration                    : 2 h 23 min
Bit rate                    : 55 b/s
Count of elements           : 1945
Stream size                 : 58.3 KiB (0%)
Language                    : English
Default                     : Yes
Forced                      : No












Code:



Hindi Untouched Audio Source Goldmine Telefilms
Tamil Untouched Audio Source Tentkotta
Thanks to TMV for Tamil print & KyoGo for Hindi audio


Hindi Audio is perfectly synced by Me


Note: Hindi version have many scene cuts , also on Hindi version some songs were removed and others were replaced with Instrumantal version of the song, So I added all the songs, and Tamil audio's volume was lower than Hindi thats why I applied dB gain for Tamil scenes for perfect match with Hindi Audio
It took more than 10 hours to sync







Trackers List

Tracker Name
UDP://TRACKER.LEECHERS-PARADISE.ORG:6969/ANNOUNCE
UDP://TRACKER.COPPERSURFER.TK:6969/ANNOUNCE
UDP://TRACKER.OPENTRACKR.ORG:1337/ANNOUNCE
UDP://TRACKER.ZER0DAY.TO:1337/ANNOUNCE
UDP://EDDIE4.NL:6969/ANNOUNCE
udp://tracker.openbittorrent.com:80/announce

Torrent File Content

  • 96.2018.1080p.HDRip.x265.Dual.Audio.[Tamil.DD.5.1].[Hindi.DD.2.0.384Kbps].By.~KyoGo~.mkv (2.3 GB)

Related torrents

Torrent Name Added Size Seed Leech
2 years ago 1.6 GB 299 152
2 years ago 1.4 GB 184 18
2 years ago 9.7 GB 93 64
2 years ago 4.5 GB 89 38
1 year ago 1.7 GB 42 13


Latest Searches