200 Halla Ho (2021) Zee 5 Hindi 720p WEBDL x264 AAC ESub


    Seeders : 180      Leechers : 31

Movie : 200: Halla Ho
Downloads : 8769
Language : Hindi
tag : Drama,Thriller,
Genres : Crime,Drama,
Release date : 2021
Summary : Inspired by true events, the film narrates the story of women terrorised by a mobster who gang-raped, robbed, terrorised and murdered 300 families for 15 years until he met his nemesis in a young Dalit girl.




Description




200: Halla Ho
Loosely based on a real incident, 200: Halla Ho is the story of women, terrorised by a mobster
whose gang raped, robbed, terrorised and murdered 300 families for 15 years until he met his nemesis in a young Dalit girl.

Directors:
Sarthak Dasgupta,Alok Batra
Cast:
Flora Saini,Amol Palekar,Barun Sobti.

Format : Matroska
Format version : Version 4
File size : 753 MiB
Duration : 1 h 55 min
Overall bit rate mode : Variable
Overall bit rate : 915 kb/s

Video
ID : 1
Format : AVC
Format/Info : Advanced Video Codec
Format profile : [email protected]
Format settings : CABAC / 4 Ref Frames
Format settings, CABAC : Yes
Format settings, Reference frames : 4 frames
Format settings, GOP : M=4, N=50
Codec ID : V_MPEG4/ISO/AVC
Duration : 1 h 55 min
Bit rate mode : Variable
Bit rate : 849 kb/s
Maximum bit rate : 2 700 kb/s
Width : 1 280 pixels
Height : 720 pixels
Display aspect ratio :

Audio
ID : 2
Format : AAC LC
Format/Info : Advanced Audio Codec Low Complexity
Codec ID : A_AAC-2
Duration : 1 h 55 min
Bit rate : 64.0 kb/s
Channel(s) : 2 channels
Channel layout : L R
Sampling rate : 48.0 kHz
Frame rate : 46.875 FPS (1024 SPF)
Compression mode : Lossy
Stream size : 52.7 MiB (7%)
Language : Hindi
Default : Yes
Forced : No

Text
ID : 3
Format : UTF-8
Codec ID : S_TEXT/UTF8
Codec ID/Info : UTF-8 Plain Text
Duration : 1 h 49 min
Bit rate : 65 b/s
Count of elements : 1615
Stream size : 53.2 KiB (0%)
Language : English


Trackers List

Tracker Name
udp://9.rarbg.me:2780/announce
udp://tracker.tiny-vps.com:6969/announce
udp://tracker.torrent.eu.org:451/announce
udp://exodus.desync.com:6969/announce
http://explodie.org:6969/announce
http://tracker.opentrackr.org:1337/announce
udp://9.rarbg.to:2800/announce
http://t.nyaatracker.com:80/announce
udp://open.stealth.si:80/announce
http://91.217.91.21:3218/announce
http://tracker.dler.org:6969/announce
udp://ipv4.tracker.harry.lu:80/announce
udp://9.rarbg.me:2720/announce
udp://9.rarbg.to:2720/announce

Torrent File Content

  • 200 Halla Ho (2021) Zee 5 Hindi 720p WEBDL x264 AAC ESub.mkv (753.2 MB)

Related torrents

Torrent Name Added Size Seed Leech
1 month ago 753.2 MB 103 6
1 month ago 821.1 MB 70 21
1 month ago 956.1 MB 59 12
23 days ago 1.7 GB 52 4
1 month ago 943.6 MB 24 3


Latest Searches